Модераторы: K15, Младшие модераторы, Модераторы

Ночь и город / Night and the City (1950) BDRip 720p от msltel | P2

Сообщение Zina » 26 янв 2021, 22:41

#777
Название: Ночь и город
Оригинальное название: Night and the City
Страна: Великобритания, США
Жанр: нуар, криминал, спорт, триллер
Год выпуска: 1950
Продолжительность: 01:35:50
Режиссер: Жюль Дассен
В ролях: Ричард Уидмарк, Джин Тирни, Гуги Уизерс, Хью Марлоу, Френсис Л. Салливан, Херберт Лом, Станислаус Збишко, Майк Мазурки, Чарльз Фаррелл, Ада Рив

О фильме: Гарри Фабиан — мелкий лондонский «разводила» без гроша за душой, но с грандиозными планами на будущее. Он ставит всё в своей жизни на карту, чтобы застолбить место в криминальном мире, организовав резонансный поединок двух известных рестлеров. Его расчёт основан на убеждении, что воротила Кристо, который контролирует все матчи в британской столице, не сможет ничего ему противопоставить до тех пор, пока начинание Фабиана поддерживает отец Кристо, легендарный греческий борец Грегориус. Однако планы Фабиана никогда не срабатывают, о чём ему не устаёт напоминать невеста Мэри, мечтающая о спокойной жизни в браке с любимым... В основу сценария лёг одноимённый роман Джеральда Керша (1938).



Качество: BDRip 720p
Формат: MKV
Видео: MPEG-4 AVC, 6351 Kбит/с, 958x720, 23.976 кадр/с
Аудио 1: русский, AC3, 192 kbps, 1 ch, 48 kHz [закадровый двухголосый, DVD Classic]
Аудио 2: английский, DTS, 255 kbps, 1 ch, 48 kHz [оригинал]
Субтитры: английские (SRT)
Главы/чаптеры
Общее
Уникальный идентификатор : 205953978341703126550172332519994825776 (0x9AF14B1C9DB6FCB3901F0F8168221C30)
Полное имя : D:VideoНочь и город.1950.BDRip 720p msltel.mkv
Формат : Matroska
Версия формата : Version 4
Размер файла : 4,55 Гбайт
Продолжительность : 1 ч. 35 м.
Общий поток : 6 801 Кбит/сек
Название фильма : Ночь и город.1950.BDRip msltel
Дата кодирования : UTC 2021-01-13 10:13:55
Программа кодирования : mkvmerge v8.2.0 ('World of Adventure') 64bit
Библиотека кодирования : libebml v1.3.1 + libmatroska v1.4.2

Видео
Идентификатор : 1
Формат : AVC
Формат/Информация : Advanced Video Codec
Профиль формата : High@L4.1
Настройки формата : CABAC / 12 Ref Frames
Параметр CABAC формата : Да
Параметр RefFrames формата : 12 кадров
Идентификатор кодека : V_MPEG4/ISO/AVC
Продолжительность : 1 ч. 35 м.
Битрейт : 6 351 Кбит/сек
Ширина : 958 пикселей
Высота : 720 пикселей
Соотношение сторон : 4:3
Режим частоты кадров : Постоянный
Частота кадров : 23,976 (24000/1001) кадра/сек
Цветовое пространство : YUV
Субдискретизация насыщенности : 4:2:0
Битовая глубина : 8 бит
Тип развёртки : Прогрессивная
Бит/(Пиксели*Кадры) : 0.384
Размер потока : 4,25 Гбайт (93%)
Библиотека кодирования : x264 core 161 r3018 db0d417
Настройки программы : cabac=1 / ref=12 / deblock=1:-3:-3 / analyse=0x3:0x113 / me=umh / subme=10 / psy=1 / psy_rd=1.00:0.00 / mixed_ref=1 / me_range=32 / chroma_me=1 / trellis=2 / 8x8dct=1 / cqm=0 / deadzone=21,11 / fast_pskip=0 / chroma_qp_offset=-2 / threads=12 / lookahead_threads=2 / sliced_threads=0 / nr=0 / decimate=0 / interlaced=0 / bluray_compat=0 / constrained_intra=0 / bframes=8 / b_pyramid=2 / b_adapt=2 / b_bias=0 / direct=1 / weightb=1 / open_gop=0 / weightp=2 / keyint=230 / keyint_min=23 / scenecut=40 / intra_refresh=0 / rc_lookahead=40 / rc=crf / mbtree=0 / crf=18.0 / qcomp=0.60 / qpmin=0 / qpmax=69 / qpstep=4 / vbv_maxrate=62500 / vbv_bufsize=78125 / crf_max=0.0 / nal_hrd=none / filler=0 / ip_ratio=1.40 / pb_ratio=1.30 / aq=3:1.00
Язык : English
Default : Да
Forced : Нет

Аудио #1
Идентификатор : 2
Формат : AC-3
Формат/Информация : Audio Coding 3
Коммерческое название : Dolby Digital
Идентификатор кодека : A_AC3
Продолжительность : 1 ч. 35 м.
Вид битрейта : Постоянный
Битрейт : 192 Кбит/сек
Каналы : 1 канал
Channel layout : C
Частота : 48,0 КГц
Частота кадров : 31,250 кадров/сек (1536 SPF)
Метод сжатия : С потерями
Размер потока : 132 Мбайт (3%)
Заголовок : DVO DVD Classic
Язык : Russian
Service kind : Complete Main
Default : Да
Forced : Нет

Аудио #2
Идентификатор : 3
Формат : DTS
Формат/Информация : Digital Theater Systems
Идентификатор кодека : A_DTS
Продолжительность : 1 ч. 35 м.
Вид битрейта : Постоянный
Битрейт : 255 Кбит/сек
Каналы : 1 канал
Channel layout : C
Частота : 48,0 КГц
Частота кадров : 93,750 кадра/сек (512 SPF)
Битовая глубина : 24 бит
Метод сжатия : С потерями
Размер потока : 175 Мбайт (4%)
Заголовок : оригинал
Язык : English
Default : Нет
Forced : Нет

Текст
Идентификатор : 4
Формат : UTF-8
Идентификатор кодека : S_TEXT/UTF8
Идентификатор кодека/Информация : UTF-8 Plain Text
Продолжительность : 1 ч. 33 м.
Битрейт : 71 бит/сек
Count of elements : 1253
Размер потока : 49,1 Кбайт (0%)
Заголовок : английские
Язык : English
Default : Нет
Forced : Нет

Меню
00:00:00.000 : en:Logos/Opening credits
00:01:28.797 : en:Saint Mary
00:07:42.962 : en:Adam Dunn
00:10:30.630 : en:The Silver Fox
00:13:00.404 : en:The American Bar
00:15:56.956 : en:Gregorius
00:19:57.487 : en:"Here's to Champagne"
00:23:36.540 : en:Figler
00:25:58.348 : en:Helen's Two Hundred Quid
00:31:38.438 : en:Mr. Chilk, Fergus Chilk
00:37:03.679 : en:Fabian Promotions
00:39:20.608 : en:Hermes Kristo
00:42:54.280 : en:Business, Business, Business
00:48:13.307 : en:The Strangler
00:50:59.973 : en:"I Let My Boy Crush You"
00:53:24.993 : en:Nosseross's Phone Call
01:00:11.399 : en:The Wrestling match
01:05:38.768 : en:"Papa"
01:09:17.528 : en:The Word Goes Out
01:13:25.567 : en:"You'll Be All Right"
01:15:09.546 : en:The Shot Tower
01:21:05.068 : en:"Everything Seems toBe in Order"
01:22:23.063 : en:Betrayals
01:26:21.050 : en:"Oh, Anna, the Things I Did"

Исходник vs Рип



Zina
Аватара пользователя
 
Раздал: 0 байт
Скачал: 0 байт
Ратио: Inf.
Сообщения: 332
Зарегистрирован: 01 июл 2014, 16:52
  • Торрент
Автор: Zina Хэш: 0baa1577e9b6e115008c0acad58aeeba445b444e
Добавлен: 26 янв 2021, 22:41 Приватный: Нет (DHT включён)
Статус: Проверен
Размер: 4.55 ГБ (4 888 835 065 байт)
Изменил:
---
Скачали: 2 (Раздающих: 0%)
Причина:
---
Здоровье: 100%
Сидеров: 4 Личеров: 1
Скорость раздачи: 0 байт/сек Скорость скачивания: 0 байт/сек
Последний сидер: 1 месяц 1 день 6 часов 37 минут 57 секунд назад Последний личер: 1 месяц 1 день 6 часов 37 минут 57 секунд назад
Скачать торрент
Скачать торрент
[ Размер 23.65 КБ / Просмотров 14 ]

Форум Статистика

Кто сейчас на конференции

Сейчас этот форум просматривают: нет зарегистрированных пользователей и гости: 2

  • Похожие торренты
    Ответы
    Просмотры
    Последнее сообщение

Настройки

Вернуться в Фильмы / HDTV / HD / Blu-Ray

cron
Ресурс не предоставляет электронные версии произведений, а занимается лишь коллекционированием и каталогизацией ссылок, присылаемых и публикуемых на форуме нашими читателями. Если вы являетесь правообладателем какого-либо представленного материала и не желаете чтобы ссылка на него находилась в нашем каталоге, свяжитесь с нами и мы незамедлительно удалим её. Файлы для обмена на трекере предоставлены пользователями сайта, и администрация не несёт ответственности за их содержание. Просьба не заливать файлы, защищенные авторскими правами, а также файлы нелегального содержания!