Модераторы: K15, Младшие модераторы, Модераторы

Больше, чем друг / The Switch (2010) WEB-DLRip 720p от SuperMin | D | Open Matte

Сообщение Zina » 26 янв 2021, 22:41

#777
Информация о фильме
Название: Больше, чем друг
Оригинальное название: The Switch
Год выхода: 2010
Жанр: драма, мелодрама, комедия
Режиссер: Джош Гордон, Уилл Спек
В ролях: Джейсон Бейтман, Дженнифер Энистон, Джефф Голдблюм, Джульетт Льюис, Виктор Паган, Тодд Луисо, Скотт Элрод, Патрик Уилсон, Ребекка Наоми Джонс, Келли Баррет


Во всем Нью-Йорке не было ближе друзей, чем риэлтор-невротик Уолли и очаровательная Кэсси. Однако когда Кэсси решится на искусственное оплодотворение, донором она выберет надежного и женатого красавца Роланда... Лучшие друзья решают отметить это вечеринкой, где Уолли напивается до неприличия...
Через семь лет Кэсси возвращается в Нью-Йорк с 6-летним сыном, который поразительно напоминает Уолли самого себя, а заодно вызывает в его памяти все, что случилось той злополучной ночью. Теперь незадачливому «другу» предстоит убедить Кэсси, что они - больше чем друзья, выиграть у Роланда статус «настоящего папы», и разобраться с самим собой.




Страна: США
Студия: Bona Fide Productions, Echo Films, Mandate Pictures
Продолжительность: 01:41:21
Перевод: Дубляж

Файл
Кодек: H.264
Качество: WEB-DLRip 720p
Видео: 1280x720 (16:9), 3314 kbps, 23.976 fps
Звук: Русский (AC-3, 6ch, 448 kbps)
Английский (AC3, 6ch, 640 kbps)
Субтитры: Русские, английские



x264 [info]: frame I:1146 Avg QP:17.42 size:120597
x264 [info]: frame P:30167 Avg QP:18.84 size: 41026
x264 [info]: frame B:114472 Avg QP:21.46 size: 9984
x264 [info]: consecutive B-frames: 1.7% 2.0% 5.7% 15.9% 18.0% 52.7% 3.4% 0.2% 0.1% 0.0% 0.2%

General
Unique ID : 212512707485657019115723055712651608041 (0x9FE0756CC50829ACF9F484272A367FE9)
Complete name : F:КИНОРУТОРБольше, чем друг (Open Matte).WEB-DLRip 720p.mkv
Format : Matroska
Format version : Version 4
File size : 3.12 GiB
Duration : 1 h 41 min
Overall bit rate : 4 403 kb/s
Movie name : Больше, чем друг / The Switch (2010) (Open Matte) - #LORDKILL#
Encoded date : UTC 2021-01-12 14:11:03
Writing application : mkvmerge v32.0.0 ('Astral Progressions') 64-bit
Writing library : libebml v1.3.7 + libmatroska v1.5.0

Video
ID : 1
Format : AVC
Format/Info : Advanced Video Codec
Format profile : High@L4.1
Format settings : CABAC / 9 Ref Frames
Format settings, CABAC : Yes
Format settings, Reference : 9 frames
Codec ID : V_MPEG4/ISO/AVC
Duration : 1 h 41 min
Bit rate : 3 314 kb/s
Width : 1 280 pixels
Height : 720 pixels
Display aspect ratio : 16:9
Frame rate mode : Constant
Frame rate : 23.976 (24000/1001) FPS
Color space : YUV
Chroma subsampling : 4:2:0
Bit depth : 8 bits
Scan type : Progressive
Bits/(Pixel*Frame) : 0.150
Stream size : 2.35 GiB (75%)
Writing library : x264 core 159 r2991 1771b55
Encoding settings : cabac=1 / ref=9 / deblock=1:-2:-2 / analyse=0x3:0x113 / me=umh / subme=10 / psy=1 / psy_rd=1.00:0.20 / mixed_ref=1 / me_range=32 / chroma_me=1 / trellis=2 / 8x8dct=1 / cqm=0 / deadzone=21,11 / fast_pskip=0 / chroma_qp_offset=-3 / threads=12 / lookahead_threads=3 / sliced_threads=0 / nr=0 / decimate=1 / interlaced=0 / bluray_compat=0 / constrained_intra=0 / bframes=10 / b_pyramid=2 / b_adapt=2 / b_bias=0 / direct=1 / weightb=1 / open_gop=0 / weightp=2 / keyint=240 / keyint_min=23 / scenecut=40 / intra_refresh=0 / rc=crf / mbtree=0 / crf=19.5 / qcomp=0.60 / qpmin=0 / qpmax=69 / qpstep=4 / ip_ratio=1.40 / pb_ratio=1.30 / aq=1:1.00
Default : Yes
Forced : No

Audio #1
ID : 2
Format : AC-3
Format/Info : Audio Coding 3
Commercial name : Dolby Digital
Codec ID : A_AC3
Duration : 1 h 41 min
Bit rate mode : Constant
Bit rate : 448 kb/s
Channel(s) : 6 channels
Channel layout : L R C LFE Ls Rs
Sampling rate : 48.0 kHz
Frame rate : 31.250 FPS (1536 SPF)
Compression mode : Lossy
Stream size : 325 MiB (10%)
Title : Дубляж
Language : Russian
Service kind : Complete Main
Default : Yes
Forced : No

Audio #2
ID : 3
Format : AC-3
Format/Info : Audio Coding 3
Commercial name : Dolby Digital
Codec ID : A_AC3
Duration : 1 h 41 min
Bit rate mode : Constant
Bit rate : 640 kb/s
Channel(s) : 6 channels
Channel layout : L R C LFE Ls Rs
Sampling rate : 48.0 kHz
Frame rate : 31.250 FPS (1536 SPF)
Compression mode : Lossy
Stream size : 464 MiB (15%)
Language : English
Service kind : Complete Main
Default : No
Forced : No

Text #1
ID : 4
Format : UTF-8
Codec ID : S_TEXT/UTF8
Codec ID/Info : UTF-8 Plain Text
Duration : 1 h 35 min
Bit rate : 111 b/s
Count of elements : 1598
Stream size : 78.2 KiB (0%)
Language : Russian
Default : No
Forced : No

Text #2
ID : 5
Format : UTF-8
Codec ID : S_TEXT/UTF8
Codec ID/Info : UTF-8 Plain Text
Duration : 1 h 35 min
Bit rate : 85 b/s
Count of elements : 1510
Stream size : 59.3 KiB (0%)
Language : English
Default : No
Forced : No

Zina
Аватара пользователя
 
Раздал: 0 байт
Скачал: 0 байт
Ратио: Inf.
Сообщения: 332
Зарегистрирован: 01 июл 2014, 16:52
  • Торрент
Автор: Zina Хэш: 295fbad1bb2283249802c144fd96104f18ce38dc
Добавлен: 26 янв 2021, 22:41 Приватный: Нет (DHT включён)
Статус: Проверен
Размер: 3.12 ГБ (3 347 557 637 байт)
Изменил:
---
Скачали: 224 (Раздающих: 0%)
Причина:
---
Здоровье: 100%
Сидеров: 8 Личеров: 0
Скорость раздачи: 0 байт/сек Скорость скачивания: 0 байт/сек
Последний сидер: 1 месяц 10 дней 23 часа 35 секунд назад Последний личер: 4 месяца 29 дней 8 часов 58 минут 17 секунд назад
Скачать торрент
Скачать торрент
[ Размер 16.94 КБ / Просмотров 20 ]

Форум Статистика

Кто сейчас на конференции

Сейчас этот форум просматривают: нет зарегистрированных пользователей и гости: 5

  • Похожие торренты
    Ответы
    Просмотры
    Последнее сообщение

Настройки

Вернуться в Фильмы / HDTV / HD / Blu-Ray

cron
Ресурс не предоставляет электронные версии произведений, а занимается лишь коллекционированием и каталогизацией ссылок, присылаемых и публикуемых на форуме нашими читателями. Если вы являетесь правообладателем какого-либо представленного материала и не желаете чтобы ссылка на него находилась в нашем каталоге, свяжитесь с нами и мы незамедлительно удалим её. Файлы для обмена на трекере предоставлены пользователями сайта, и администрация не несёт ответственности за их содержание. Просьба не заливать файлы, защищенные авторскими правами, а также файлы нелегального содержания!