Модераторы: K15, Младшие модераторы, Модераторы

Мужчина и женщина: Лучшие годы / Les plus belles années d'une vie / The Best Years of a Life (2019) BDRip 720p от селезень | iTunes

Сообщение Zina » 26 янв 2021, 22:41

#777
Информация о фильме
Название: Мужчина и женщина: Лучшие годы
Оригинальное название: Les plus belles années d'une vie / The Best Years of a Life
Год выхода: 2019
Жанр: Драма
Режиссер: Клод Лелуш
В ролях: Жан-Луи Трентиньян, Анук Эме, Суад Амиду, Антуан Сир, Марианн Деникур, Моника Беллуччи, Тесс Ловернь, Лорен Прудом, Жан-Ив Крессенвиль, Бернар Варна



О фильме: История великой любви возвращается. Спустя много лет Жан-Луи и Анна снова встретятся, чтобы погрузиться в прошлое и вспомнить лучшие годы своей жизни. Неожиданно сильное и волнующее чувство вырвет героев из холодных оков одиночества.

Страна: Франция
Студия: Davis-Films, France 2 Cinéma, France Télévision, Les Films 13, SofiTVciné 6
Продолжительность: 01:30:32
Перевод: Дублированный | iTunes

Качество: BDRip 720p
Видео: MPEG-4 AVC, 1280x536, 7000 Kbit/s, 23.976 fps
Аудио #01: 48 kHz, AC3, 5.1, 384 Kbps | iTunes | RUS |
Аудио #02: 48 kHz, AC3, 5.1, 640 Kbps | Оригинал | FRE |
Субтитры: Английские



General
Unique ID : 192876577716003309706280460425330710197 (0x911AAD7B166F43E6008520E2B54C56B5)
Complete name : E:VideoFirstLes.Plus.Belles.Annees.D.Une.Vie.2019.BDRip.720p.seleZen.mkv
Format : Matroska
Format version : Version 4
File size : 5.08 GiB
Duration : 1 h 30 min
Overall bit rate : 8 026 kb/s
Movie name : Les Plus Belles Annees D Une Vie 2019 from seleZen
Encoded date : UTC 2021-01-12 06:54:06
Writing application : mkvmerge v40.0.0 ('Old Town Road + Pony') 64-bit
Writing library : libebml v1.3.9 + libmatroska v1.5.2

Video
ID : 1
Format : AVC
Format/Info : Advanced Video Codec
Format profile : High@L4.1
Format settings : CABAC / 12 Ref Frames
Format settings, CABAC : Yes
Format settings, Reference : 12 frames
Codec ID : V_MPEG4/ISO/AVC
Duration : 1 h 30 min
Bit rate : 7 000 kb/s
Width : 1 280 pixels
Height : 536 pixels
Display aspect ratio : 2.40:1
Frame rate mode : Constant
Frame rate : 23.976 (24000/1001) FPS
Color space : YUV
Chroma subsampling : 4:2:0
Bit depth : 8 bits
Scan type : Progressive
Bits/(Pixel*Frame) : 0.426
Stream size : 4.43 GiB (87%)
Writing library : x264 core 161 -from seleZen
Encoding settings : cabac=1 / ref=12 / deblock=1:-2:-2 / analyse=0x3:0x113 / me=umh / subme=10 / psy=1 / psy_rd=1.03:0.04 / mixed_ref=1 / me_range=32 / chroma_me=1 / trellis=2 / 8x8dct=1 / cqm=0 / deadzone=21,11 / fast_pskip=0 / chroma_qp_offset=-3 / threads=17 / lookahead_threads=2 / sliced_threads=0 / nr=0 / decimate=0 / interlaced=0 / bluray_compat=0 / constrained_intra=0 / bframes=9 / b_pyramid=2 / b_adapt=2 / b_bias=0 / direct=3 / weightb=1 / open_gop=0 / weightp=2 / keyint=240 / keyint_min=23 / scenecut=40 / intra_refresh=0 / rc_lookahead=40 / rc=2pass / mbtree=0 / bitrate=7000 / ratetol=1.0 / qcomp=0.60 / qpmin=0 / qpmax=51 / qpstep=4 / cplxblur=20.0 / qblur=0.5 / vbv_maxrate=50000 / vbv_bufsize=62000 / nal_hrd=none / filler=0 / ip_ratio=1.40 / pb_ratio=1.30 / aq=3:0.80
Language : French
Default : Yes
Forced : No

Audio #1
ID : 2
Format : AC-3
Format/Info : Audio Coding 3
Commercial name : Dolby Digital
Codec ID : A_AC3
Duration : 1 h 30 min
Bit rate mode : Constant
Bit rate : 384 kb/s
Channel(s) : 6 channels
Channel layout : L R C LFE Ls Rs
Sampling rate : 48.0 kHz
Frame rate : 31.250 FPS (1536 SPF)
Compression mode : Lossy
Stream size : 249 MiB (5%)
Title : iTunes
Language : Russian
Service kind : Complete Main
Default : Yes
Forced : Yes

Audio #2
ID : 3
Format : AC-3
Format/Info : Audio Coding 3
Commercial name : Dolby Digital
Codec ID : A_AC3
Duration : 1 h 30 min
Bit rate mode : Constant
Bit rate : 640 kb/s
Channel(s) : 6 channels
Channel layout : L R C LFE Ls Rs
Sampling rate : 48.0 kHz
Frame rate : 31.250 FPS (1536 SPF)
Compression mode : Lossy
Stream size : 414 MiB (8%)
Title : Original
Language : French
Service kind : Complete Main
Default : No
Forced : No

Text
ID : 4
Format : UTF-8
Codec ID : S_TEXT/UTF8
Codec ID/Info : UTF-8 Plain Text
Duration : 1 h 29 min
Bit rate : 49 b/s
Count of elements : 1244
Stream size : 32.4 KiB (0%)
Language : English
Default : No
Forced : No

Menu
00:00:00.000 : fr:Chapitre 01
00:08:45.734 : fr:Chapitre 02
00:15:22.338 : fr:Chapitre 03
00:24:30.302 : fr:Chapitre 04
00:32:26.570 : fr:Chapitre 05
00:39:33.496 : fr:Chapitre 06
00:45:18.716 : fr:Chapitre 07
00:51:58.240 : fr:Chapitre 08
01:00:44.099 : fr:Chapitre 09
01:07:22.664 : fr:Chapitre 10
01:15:55.718 : fr:Chapitre 11
01:26:14.795 : fr:Chapitre 12


Релиз: Присоединяйся к:

Zina
Аватара пользователя
 
Раздал: 0 байт
Скачал: 0 байт
Ратио: Inf.
Сообщения: 332
Зарегистрирован: 01 июл 2014, 16:52
  • Торрент
Автор: Zina Хэш: c834413da9a705134ce12c68d60d27430756b032
Добавлен: 26 янв 2021, 22:41 Приватный: Нет (DHT включён)
Статус: Проверен
Размер: 5.08 ГБ (5 450 441 148 байт)
Изменил:
---
Скачали: 837 (Раздающих: 0%)
Причина:
---
Здоровье: 100%
Сидеров: 44 Личеров: 4
Скорость раздачи: 0 байт/сек Скорость скачивания: 0 байт/сек
Последний сидер: 1 месяц 10 дней 22 часа 10 минут 2 секунды назад Последний личер: 1 месяц 10 дней 22 часа 10 минут 2 секунды назад
Скачать торрент
Скачать торрент
[ Размер 7.52 КБ / Просмотров 15 ]

Форум Статистика

Кто сейчас на конференции

Сейчас этот форум просматривают: нет зарегистрированных пользователей и гости: 3

  • Похожие торренты
    Ответы
    Просмотры
    Последнее сообщение

Настройки

Вернуться в Фильмы / HDTV / HD / Blu-Ray

cron
Ресурс не предоставляет электронные версии произведений, а занимается лишь коллекционированием и каталогизацией ссылок, присылаемых и публикуемых на форуме нашими читателями. Если вы являетесь правообладателем какого-либо представленного материала и не желаете чтобы ссылка на него находилась в нашем каталоге, свяжитесь с нами и мы незамедлительно удалим её. Файлы для обмена на трекере предоставлены пользователями сайта, и администрация не несёт ответственности за их содержание. Просьба не заливать файлы, защищенные авторскими правами, а также файлы нелегального содержания!