Модераторы: K15, Младшие модераторы, Модераторы

Герцогиня и Драный Лис / The Duchess and the Dirtwater Fox (1976) BDRip 720p от msltel | P2, A

Сообщение Zina » 26 янв 2021, 22:41

#777
Название: Герцогиня и Драный Лис
Оригинальное название: The Duchess and the Dirtwater Fox
Страна: США
Жанр: комедия, вестерн
Год выпуска: 1976
Продолжительность: 01:39:30
Режиссер: Мелвин Фрэнк
В ролях: Джордж Сигал, Голди Хоун, Конрад Дженис, Тэйер Дэвид Дженнифер Ли, Сид Гулд, Пэт Эст, Э.Дж. Андре, Ричард Фарнсуорт

О фильме: 1882 год. Неудачливый карточный шулер Чарли Мэллой по прозвищу Грязный Лис украл 40 тысяч у шайки крутых парней и собирается начать новую жизнь в Австралии. В Сан-Франциско, в ожидании парохода, он знакомится с артисткой кабаре Канарейкой, которая также мечтает начать новую жизнь (с одним рабочим и шестью выходными днями в неделю) в качестве гувернантки в семье многодетного мормона. Чтобы получить это место, ей нужно платье светской дамы. Прихватив чемоданчик с деньгами Мэллоя, Канарейка покупает платье, выдаёт себя за английскую герцогиню, получает место и едет в Солт-Лейк-Сити. Мэллой отправляется в погоню за "своими" деньгами... Пройдя многие испытания, Канарейка-Герцогиня и Грязный Лис находят то, что бывает важнее денег... Экранизация произведения Барри Сандлера.



Качество: BDRip 720p
Формат: MKV
Видео: MPEG-4 AVC, 10 Mбит/с, 1280x544, 23.976 кадр/с
Аудио 1: русский, AC3, 192 kbps, 2 ch, 48 kHz [закадровый двухголосый]
Аудио 2: русский, AC3, 192 kbps, 2 ch, 48 kHz [авторский, Леонид Володарский]
Аудио 3: русский, AC3, 192 kbps, 2 ch, 48 kHz [авторский, Василий Горчаков]
Аудио 4: русский, AC3, 192 kbps, 2 ch, 48 kHz [авторский, Алексей Михалёв]
Аудио 5: английский, FLAC, 354 kbps, 2 ch, 48 kHz [оригинал]
Субтитры: английские (SRT)
Главы/чаптеры
Общее
Уникальный идентификатор : 217156747893388638679421285465250993737 (0xA35EDE4B7D0C9DC3A959D455E24E1649)
Полное имя : D:VideoГерцогиня и Драный Лис.1976.BDRip 720p msltel.mkv
Формат : Matroska
Версия формата : Version 4
Размер файла : 7,76 Гбайт
Продолжительность : 1 ч. 39 м.
Режим общего битрейта : Переменный
Общий поток : 11,2 Мбит/сек
Название фильма : Герцогиня и Драный Лис.1976.BRip msltel
Дата кодирования : UTC 2021-01-11 13:39:17
Программа кодирования : mkvmerge v8.2.0 ('World of Adventure') 64bit
Библиотека кодирования : libebml v1.3.1 + libmatroska v1.4.2

Видео
Идентификатор : 1
Формат : AVC
Формат/Информация : Advanced Video Codec
Профиль формата : High@L4.1
Настройки формата : CABAC / 12 Ref Frames
Параметр CABAC формата : Да
Параметр RefFrames формата : 12 кадров
Идентификатор кодека : V_MPEG4/ISO/AVC
Продолжительность : 1 ч. 39 м.
Битрейт : 10,0 Мбит/сек
Ширина : 1 280 пикселей
Высота : 544 пикселя
Соотношение сторон : 2,35:1
Режим частоты кадров : Постоянный
Частота кадров : 23,976 (24000/1001) кадра/сек
Цветовое пространство : YUV
Субдискретизация насыщенности : 4:2:0
Битовая глубина : 8 бит
Тип развёртки : Прогрессивная
Бит/(Пиксели*Кадры) : 0.602
Размер потока : 6,98 Гбайт (90%)
Библиотека кодирования : x264 core 161 r3018 db0d417
Настройки программы : cabac=1 / ref=12 / deblock=1:-3:-3 / analyse=0x3:0x113 / me=umh / subme=10 / psy=1 / psy_rd=1.00:0.00 / mixed_ref=1 / me_range=32 / chroma_me=1 / trellis=2 / 8x8dct=1 / cqm=0 / deadzone=21,11 / fast_pskip=0 / chroma_qp_offset=-2 / threads=12 / lookahead_threads=3 / sliced_threads=0 / nr=0 / decimate=0 / interlaced=0 / bluray_compat=0 / constrained_intra=0 / bframes=10 / b_pyramid=2 / b_adapt=2 / b_bias=0 / direct=1 / weightb=1 / open_gop=0 / weightp=2 / keyint=230 / keyint_min=23 / scenecut=40 / intra_refresh=0 / rc_lookahead=40 / rc=crf / mbtree=0 / crf=16.5 / qcomp=0.60 / qpmin=0 / qpmax=69 / qpstep=4 / vbv_maxrate=62500 / vbv_bufsize=78125 / crf_max=0.0 / nal_hrd=none / filler=0 / ip_ratio=1.40 / pb_ratio=1.30 / aq=3:1.00
Язык : English
Default : Да
Forced : Нет

Аудио #1
Идентификатор : 2
Формат : AC-3
Формат/Информация : Audio Coding 3
Коммерческое название : Dolby Digital
Идентификатор кодека : A_AC3
Продолжительность : 1 ч. 39 м.
Вид битрейта : Постоянный
Битрейт : 192 Кбит/сек
Каналы : 2 канала
Channel layout : L R
Частота : 48,0 КГц
Частота кадров : 31,250 кадров/сек (1536 SPF)
Метод сжатия : С потерями
Размер потока : 137 Мбайт (2%)
Заголовок : DVO
Язык : Russian
Service kind : Complete Main
Default : Да
Forced : Нет

Аудио #2
Идентификатор : 3
Формат : AC-3
Формат/Информация : Audio Coding 3
Коммерческое название : Dolby Digital
Идентификатор кодека : A_AC3
Продолжительность : 1 ч. 39 м.
Вид битрейта : Постоянный
Битрейт : 192 Кбит/сек
Каналы : 2 канала
Channel layout : L R
Частота : 48,0 КГц
Частота кадров : 31,250 кадров/сек (1536 SPF)
Метод сжатия : С потерями
Размер потока : 137 Мбайт (2%)
Заголовок : Леонид Володарский
Язык : Russian
Service kind : Complete Main
Default : Нет
Forced : Нет

Аудио #3
Идентификатор : 4
Формат : AC-3
Формат/Информация : Audio Coding 3
Коммерческое название : Dolby Digital
Идентификатор кодека : A_AC3
Продолжительность : 1 ч. 39 м.
Вид битрейта : Постоянный
Битрейт : 192 Кбит/сек
Каналы : 2 канала
Channel layout : L R
Частота : 48,0 КГц
Частота кадров : 31,250 кадров/сек (1536 SPF)
Метод сжатия : С потерями
Размер потока : 137 Мбайт (2%)
Заголовок : Василий Горчаков
Язык : Russian
Service kind : Complete Main
Default : Нет
Forced : Нет

Аудио #4
Идентификатор : 5
Формат : AC-3
Формат/Информация : Audio Coding 3
Коммерческое название : Dolby Digital
Идентификатор кодека : A_AC3
Продолжительность : 1 ч. 39 м.
Вид битрейта : Постоянный
Битрейт : 192 Кбит/сек
Каналы : 2 канала
Channel layout : L R
Частота : 48,0 КГц
Частота кадров : 31,250 кадров/сек (1536 SPF)
Метод сжатия : С потерями
Размер потока : 137 Мбайт (2%)
Заголовок : Алексей Михалёв
Язык : Russian
Service kind : Complete Main
Default : Нет
Forced : Нет

Аудио #5
Идентификатор : 6
Формат : FLAC
Формат/Информация : Free Lossless Audio Codec
Идентификатор кодека : A_FLAC
Продолжительность : 1 ч. 39 м.
Вид битрейта : Переменный
Битрейт : 354 Кбит/сек
Каналы : 2 канала
Channel layout : L R
Частота : 48,0 КГц
Частота кадров : 11,719 кадров/сек (4096 SPF)
Битовая глубина : 16 бит
Метод сжатия : Без потерь
Размер потока : 252 Мбайт (3%)
Заголовок : оригинал
Библиотека кодирования : libFLAC 1.2.1 (UTC 2007-09-17)
Язык : English
Default : Нет
Forced : Нет

Текст
Идентификатор : 7
Формат : UTF-8
Идентификатор кодека : S_TEXT/UTF8
Идентификатор кодека/Информация : UTF-8 Plain Text
Продолжительность : 1 ч. 36 м.
Битрейт : 57 бит/сек
Count of elements : 1120
Размер потока : 40,4 Кбайт (0%)
Заголовок : английские
Язык : English
Default : Нет
Forced : Нет

Меню
00:00:00.000 : :
00:08:14.494 : :
00:17:28.047 : :
00:24:19.458 : :
00:33:46.024 : :
00:43:58.636 : :
00:53:19.196 : :
01:03:35.812 : :
01:11:22.278 : :
01:19:59.795 : :
01:26:57.212 : :
01:33:33.608 : :
01:37:37.852 : :

Исходник vs Рип



Zina
Аватара пользователя
 
Раздал: 0 байт
Скачал: 0 байт
Ратио: Inf.
Сообщения: 332
Зарегистрирован: 01 июл 2014, 16:52
  • Торрент
Автор: Zina Хэш: 6743b825410c6816ca4ba6ed5ac02c3403d07de4
Добавлен: 26 янв 2021, 22:41 Приватный: Нет (DHT включён)
Статус: Проверен
Размер: 7.76 ГБ (8 335 925 804 байт)
Изменил:
---
Скачали: 191 (Раздающих: 0%)
Причина:
---
Здоровье: 100%
Сидеров: 6 Личеров: 0
Скорость раздачи: 0 байт/сек Скорость скачивания: 0 байт/сек
Последний сидер: 1 месяц 1 день 6 часов 51 минуту 39 секунд назад Последний личер: Нет
Скачать торрент
Скачать торрент
[ Размер 39.73 КБ / Просмотров 11 ]

Форум Статистика

Кто сейчас на конференции

Сейчас этот форум просматривают: нет зарегистрированных пользователей и гости: 7

  • Похожие торренты
    Ответы
    Просмотры
    Последнее сообщение

Настройки

Вернуться в Фильмы / HDTV / HD / Blu-Ray

cron
Ресурс не предоставляет электронные версии произведений, а занимается лишь коллекционированием и каталогизацией ссылок, присылаемых и публикуемых на форуме нашими читателями. Если вы являетесь правообладателем какого-либо представленного материала и не желаете чтобы ссылка на него находилась в нашем каталоге, свяжитесь с нами и мы незамедлительно удалим её. Файлы для обмена на трекере предоставлены пользователями сайта, и администрация не несёт ответственности за их содержание. Просьба не заливать файлы, защищенные авторскими правами, а также файлы нелегального содержания!