Модераторы: K15, Младшие модераторы, Модераторы

Дестри снова в седле / Destry Rides Again (1939) BDRip 720p от KORSAR | P

Сообщение 7Max7 » 16 янв 2021, 21:07

#777

Дестри снова в седле / Destry Rides Again

Год выхода: 1939
Страна: США
Студия: Universal Pictures
Продолжительность: 01:34:36
Перевод: Профессиональный многоголосый
Жанр: Комедия, приключения, вестерн

Режиссер: Джордж Маршалл

В ролях: Марлен Дитрих, Джеймс Стюарт, Миша Ауэр, Чарльз Уиннингер, Брайан Донлеви, Аллен Дженкинс, Уоррен Хаймер, Ирен Херви, Уна Меркел, Билли Гилберт

О фильме:
Маленьким городком на Диком Западе заправляют купленный мэр и владелец игорного заведения. Последний доставляет себе удовольствие отстреливать слишком принципиальных шерифов, а первый после очередного убийства назначает шерифом горького пьяницу. Пьяница оказывается не так прост, как кажется, – чтобы наказать негодяев Димсдэйла, он приглашает в помощники Тома Дестри, сына легендарного шерифа. Том, принципиальный противник оружия и выпивки, знает массу баек, обладает манерами джентльмена и только на первый, поверхностный, взгляд выглядит простаком...



Кодек: х264
Качество: BDRip 720p
Видео: MPEG-4 AVC, 5879 Кбит/с, 976x720, 23.976 fps
Аудио 1: Русский, AC-3, 48.0 KHz, 2 ch, 192 Кбит/с, Профессиональный многоголосый закадровый, RenTV
Аудио 2: Русский, AC-3, 48.0 KHz, 2 ch, 192 Кбит/с, Профессиональный многоголосый закадровый, UPR
Аудио 3: Русский, AC-3, 48.0 KHz, 2 ch, 192 Кбит/с, Профессиональный многоголосый закадровый, Светла
Аудио 4: Английский, AC-3, 48.0 KHz, 2 ch, 224 Кбит/с, Оригинал
Субтитры: Английские
Главы: Есть




За исходник спасибо zabuhal1964


x264 [info]: frame I:790 Avg QP:17.00 size:113283
x264 [info]: frame P:29935 Avg QP:19.53 size: 57673
x264 [info]: frame B:105379 Avg QP:21.26 size: 22352

Общее
Уникальный идентификатор : 210990388973124150661482400296474019095 (0x9EBB4553CFF669259CB731BFF1D48517)
Полное имя : I:коллекцияДестри снова в седле 1939 _BDRip 720p_KORSAR.mkv
Формат : Matroska
Версия формата : Version 2
Размер файла : 4,42 Гбайт
Продолжительность : 1 ч. 36 м.
Общий поток : 6577 Кбит/сек
Дата кодирования : UTC 2018-12-10 22:10:13
Программа кодирования : mkvmerge v5.8.0 ('No Sleep / Pillow') built on Sep 2 2012 15:37:04
Библиотека кодирования : libebml v1.2.3 + libmatroska v1.3.0

Видео
Идентификатор : 1
Формат : AVC
Формат/Информация : Advanced Video Codec
Профиль формата : High@L4.1
Настройки формата : CABAC / 11 Ref Frames
Параметр CABAC формата : Да
Параметр RefFrames формата : 11 кадров
Идентификатор кодека : V_MPEG4/ISO/AVC
Продолжительность : 1 ч. 36 м.
Битрейт : 5879 Кбит/сек
Ширина : 976 пикселей
Высота : 720 пикселей
Соотношение сторон : 4:3
Режим частоты кадров : Постоянный
Частота кадров : 23,976 (24000/1001) кадра/сек
Цветовое пространство : YUV
Субдискретизация насыщенности : 4:2:0
Битовая глубина : 8 бит
Тип развёртки : Прогрессивная
Бит/(Пиксели*Кадры) : 0.349
Размер потока : 3,80 Гбайт (86%)
Библиотека кодирования : x264 core 152 r2851kMod ba24899
Настройки программы : cabac=1 / ref=11 / deblock=1:-2:-2 / analyse=0x3:0x113 / me=umh / subme=11 / psy=1 / fade_compensate=0.00 / psy_rd=1.02:0.00 / mixed_ref=1 / me_range=48 / chroma_me=1 / trellis=2 / 8x8dct=1 / cqm=0 / deadzone=21,11 / fast_pskip=0 / chroma_qp_offset=-2 / threads=12 / lookahead_threads=2 / sliced_threads=0 / nr=0 / decimate=0 / interlaced=0 / bluray_compat=0 / constrained_intra=0 / bframes=8 / b_pyramid=2 / b_adapt=2 / b_bias=0 / direct=3 / weightb=1 / open_gop=0 / weightp=2 / keyint=240 / keyint_min=23 / scenecut=40 / intra_refresh=0 / rc_lookahead=40 / rc=2pass / mbtree=0 / bitrate=5879 / ratetol=1.0 / qcomp=0.60 / qpmin=0 / qpmax=39 / qpstep=4 / cplxblur=20.0 / qblur=0.5 / vbv_maxrate=50000 / vbv_bufsize=62500 / nal_hrd=none / filler=0 / ip_ratio=1.25 / pb_ratio=1.30 / aq=1:1.00
Язык : English
Default : Да
Forced : Нет
Цветовой диапазон : Limited
Основные цвета : BT.709
Характеристики трансфера : BT.709
Коэффициенты матрицы : BT.709

Аудио #1
Идентификатор : 2
Формат : AC-3
Формат/Информация : Audio Coding 3
Параметр Endianness формата : Big
Идентификатор кодека : A_AC3
Продолжительность : 1 ч. 36 м.
Вид битрейта : Постоянный
Битрейт : 192 Кбит/сек
Каналы : 2 канала
Расположение каналов : Front: L R
Частота : 48,0 КГц
Частота кадров : 31,250 кадров/сек (1536 SPF)
Битовая глубина : 16 бит
Метод сжатия : С потерями
Размер потока : 132 Мбайт (3%)
Заголовок : Профессиональный многоголосый закадровый, RenTV
Язык : Russian
Default : Да
Forced : Нет

Аудио #2
Идентификатор : 3
Формат : AC-3
Формат/Информация : Audio Coding 3
Параметр Endianness формата : Big
Идентификатор кодека : A_AC3
Продолжительность : 1 ч. 36 м.
Вид битрейта : Постоянный
Битрейт : 192 Кбит/сек
Каналы : 2 канала
Расположение каналов : Front: L R
Частота : 48,0 КГц
Частота кадров : 31,250 кадров/сек (1536 SPF)
Битовая глубина : 16 бит
Метод сжатия : С потерями
Размер потока : 132 Мбайт (3%)
Заголовок : Профессиональный многоголосый закадровый, UPR
Язык : Russian
Default : Нет
Forced : Нет

Аудио #3
Идентификатор : 4
Формат : AC-3
Формат/Информация : Audio Coding 3
Параметр Endianness формата : Big
Идентификатор кодека : A_AC3
Продолжительность : 1 ч. 36 м.
Вид битрейта : Постоянный
Битрейт : 192 Кбит/сек
Каналы : 2 канала
Расположение каналов : Front: L R
Частота : 48,0 КГц
Частота кадров : 31,250 кадров/сек (1536 SPF)
Битовая глубина : 16 бит
Метод сжатия : С потерями
Размер потока : 132 Мбайт (3%)
Заголовок : Профессиональный многоголосый закадровый, Светла
Язык : Russian
Default : Нет
Forced : Нет

Аудио #4
Идентификатор : 5
Формат : AC-3
Формат/Информация : Audio Coding 3
Параметр Endianness формата : Big
Идентификатор кодека : A_AC3
Продолжительность : 1 ч. 36 м.
Вид битрейта : Постоянный
Битрейт : 224 Кбит/сек
Каналы : 2 канала
Расположение каналов : Front: L R
Частота : 48,0 КГц
Частота кадров : 31,250 кадров/сек (1536 SPF)
Битовая глубина : 16 бит
Метод сжатия : С потерями
Размер потока : 154 Мбайт (3%)
Язык : English
Default : Нет
Forced : Нет

Текст
Идентификатор : 6
Формат : UTF-8
Идентификатор кодека : S_TEXT/UTF8
Идентификатор кодека/Информация : UTF-8 Plain Text
Язык : English
Default : Нет
Forced : Нет

Меню
00:00:00.000 : en:Chapter 1
00:09:36.242 : en:Chapter 2
00:19:40.888 : en:Chapter 3
00:26:56.614 : en:Chapter 4
00:36:18.551 : en:Chapter 5
00:42:54.280 : en:Chapter 6
00:48:22.149 : en:Chapter 7
00:56:22.629 : en:Chapter 8
01:01:42.949 : en:Chapter 9
01:12:10.492 : en:Chapter 10
01:17:25.307 : en:Chapter 11
01:26:09.914 : en:Chapter 12


7Max7
Аватара пользователя
 
Раздал: 491.04 ГБ
Скачал: 3 ГБ
Ратио: 163.468
Сообщения: 413
Зарегистрирован: 14 фев 2014, 18:28
  • Торрент
Автор: 7Max7 Хэш: dfcfc8054d1e5ffb099433cf6981e5d50a83c04a
Добавлен: 16 янв 2021, 21:07 Приватный: Нет (DHT включён)
Статус: Проверен
Размер: 4.42 ГБ (4 748 037 906 байт)
Изменил:
---
Скачали: 133 (Раздающих: 0%)
Причина:
---
Здоровье: 100%
Сидеров: 9 Личеров: 0
Скорость раздачи: 0 байт/сек Скорость скачивания: 0 байт/сек
Последний сидер: 5 дней 9 часов 54 минуты 27 секунд назад Последний личер: Нет
Скачать торрент
Скачать торрент
[ Размер 23.16 КБ / Просмотров 0 ]

Форум Статистика

Кто сейчас на конференции

Сейчас этот форум просматривают: нет зарегистрированных пользователей и гости: 6

  • Похожие торренты
    Ответы
    Просмотры
    Последнее сообщение

Настройки

Вернуться в Фильмы / HDTV / HD / Blu-Ray

cron
Ресурс не предоставляет электронные версии произведений, а занимается лишь коллекционированием и каталогизацией ссылок, присылаемых и публикуемых на форуме нашими читателями. Если вы являетесь правообладателем какого-либо представленного материала и не желаете чтобы ссылка на него находилась в нашем каталоге, свяжитесь с нами и мы незамедлительно удалим её. Файлы для обмена на трекере предоставлены пользователями сайта, и администрация не несёт ответственности за их содержание. Просьба не заливать файлы, защищенные авторскими правами, а также файлы нелегального содержания!