Модераторы: K15, Младшие модераторы, Модераторы

Тайна перевала Дятлова / The Dyatlov Pass Incident (Ренни Харлин) [2013, Триллер, ужасы, фантастика, HDRip-AVC / P]

Сообщение Zina » 02 июл 2020, 21:10

Тайна перевала Дятлова / The Dyatlov Pass Incident


#777

Информация о фильме
Название: Тайна перевала Дятлова
Оригинальное название: The Dyatlov Pass Incident
Год выхода: 2013
Страна: Россия, США
Студия: Aldamisa Entertainment, K. JAM Media, Future Films
Продолжительность: 01:40:24
Перевод: Профессиональный (многоголосый, закадровый) [Лицензия, BD RUS]
Жанр: Триллер, ужасы, фантастика

Режиссер: Ренни Харлин

В ролях:
Холли Госс, Мэтт Стокоу, Люк Олбрайт, Райан Хоули, Джемма Аткинсон, Николай Бутенин, Ричард Рейд, Анастасия Бурдина, Валерия Федорович, Нелли Нилсен

О фильме:
Мистический триллер, основанный на реальных событиях, произошедших на Урале в 1959 году. Группа из девяти опытных туристов под руководством студента Игоря Дятлова отправляется в лыжный поход, но в конечной точке так и не объявляется — все члены экспедиции погибают при странных обстоятельствах. До сих пор никаких внятных объяснений трагедии полувековой давности нет. В 2012-м группа американских студентов, получив университетский грант, отправляется в уральские горы по тому же маршруту, что и группа Дятлова, и пытается разгадать причину таинственной гибели советских лыжников.





Файл
Формат: MKV
Качество: HDRip-AVC
Видео: MPEG-4 AVC, 740x416, - 961 Кбит/с
Аудио: AAC-HE, 2 ch, - 76 Кбит/с
Субтитры: Нет

Общее
Уникальный идентификатор : 300532471041984270483126745246084007009 (0xE21872D278C799A91649D26E983A8461)
Полное имя : D:MOVIESThe.Dyatlov.Pass.Incident.2013.HDRip-AVC.ExKinoRay.mkv
Формат : Matroska
Версия формата : Version 4
Размер файла : 744 Мбайт
Продолжительность : 1 ч. 40 м.
Общий поток : 1 036 Кбит/сек
Дата кодирования : UTC 2020-06-17 04:30:08
Программа кодирования : mkvmerge v45.0.0 ('Heaven in Pennies') 64-bit
Библиотека кодирования : libebml v1.3.10 + libmatroska v1.5.2

Видео
Идентификатор : 1
Формат : AVC
Формат/Информация : Advanced Video Codec
Профиль формата : High@L4.1
Настройки формата : CABAC / 11 Ref Frames
Параметр CABAC формата : Да
Параметр RefFrames формата : 11 кадров
Идентификатор кодека : V_MPEG4/ISO/AVC
Продолжительность : 1 ч. 40 м.
Битрейт : 961 Кбит/сек
Ширина : 740 пикселей
Высота : 416 пикселей
Соотношение сторон : 16:9
Режим частоты кадров : Постоянный
Частота кадров : 24,000 кадра/сек
Цветовое пространство : YUV
Субдискретизация насыщенности : 4:2:0
Битовая глубина : 8 бит
Тип развёртки : Прогрессивная
Бит/(Пиксели*Кадры) : 0.130
Размер потока : 688 Мбайт (92%)
Библиотека кодирования : x264 core 160 r3000 33f9e14
Настройки программы : cabac=1 / ref=11 / deblock=1:-3:-3 / analyse=0x3:0x133 / me=umh / subme=10 / psy=1 / psy_rd=1.05:0.12 / mixed_ref=1 / me_range=32 / chroma_me=1 / trellis=2 / 8x8dct=1 / cqm=0 / deadzone=21,11 / fast_pskip=0 / chroma_qp_offset=-3 / threads=6 / lookahead_threads=1 / sliced_threads=0 / nr=0 / decimate=0 / interlaced=0 / bluray_compat=0 / constrained_intra=0 / bframes=12 / b_pyramid=2 / b_adapt=2 / b_bias=0 / direct=3 / weightb=1 / open_gop=0 / weightp=2 / keyint=240 / keyint_min=24 / scenecut=40 / intra_refresh=0 / rc=2pass / mbtree=0 / bitrate=961 / ratetol=1.0 / qcomp=0.60 / qpmin=0 / qpmax=69 / qpstep=4 / cplxblur=20.0 / qblur=0.5 / ip_ratio=1.40 / pb_ratio=1.30 / aq=3:1.00
Default : Да
Forced : Нет
Цветовой диапазон : Limited
Основные цвета : BT.709
Характеристики трансфера : BT.709
Коэффициенты матрицы : BT.709

Аудио
Идентификатор : 2
Формат : AAC LC SBR
Формат/Информация : Advanced Audio Codec Low Complexity with Spectral Band Replication
Коммерческое название : HE-AAC
Настройки формата : Explicit
Идентификатор кодека : A_AAC-2
Продолжительность : 1 ч. 40 м.
Битрейт : 76,0 Кбит/сек
Каналы : 2 канала
Channel layout : L R
Частота : 48,0 КГц
Частота кадров : 23,438 кадра/сек (2048 SPF)
Метод сжатия : С потерями
Задержка видео : 31 мс.
Размер потока : 54,6 Мбайт (7%)
Язык : Russian
Default : Да
Forced : Нет

Меню
00:00:00.000 : :Chapter 01
00:00:00.333 : :Chapter 02
00:01:39.166 : :Chapter 03
00:16:14.416 : :Chapter 04
00:29:49.291 : :Chapter 05
00:41:49.750 : :Chapter 06
00:54:19.625 : :Chapter 07
01:07:26.458 : :Chapter 08
01:19:31.166 : :Chapter 09
01:30:32.750 : :Chapter 10


Zina
Аватара пользователя
 
Раздал: 0 байт
Скачал: 0 байт
Ратио: Inf.
Сообщения: 332
Зарегистрирован: 01 июл 2014, 16:52
  • Торрент
Автор: Zina Хэш: 0312d028c5cdd10e4f3e435ee527cf57207a17d3
Добавлен: 02 июл 2020, 21:10 Приватный: Нет (DHT включён)
Статус: Проверен
Размер: 743.89 МБ (780 027 377 байт)
Изменил:
---
Скачали: 22 (Раздающих: 0%)
Причина:
---
Здоровье: 100%
Сидеров: 6 Личеров: 0
Скорость раздачи: 0 байт/сек Скорость скачивания: 0 байт/сек
Последний сидер: 9 месяцев 30 дней 21 час 39 минут 22 секунды назад Последний личер: Нет
Скачать торрент
Скачать торрент
[ Размер 16.17 КБ / Просмотров 0 ]

Форум Статистика

Кто сейчас на конференции

Сейчас этот форум просматривают: нет зарегистрированных пользователей и гости: 5

  • Похожие торренты
    Ответы
    Просмотры
    Последнее сообщение

Настройки

Вернуться в Фильмы / HDTV / HD / Blu-Ray

cron
Ресурс не предоставляет электронные версии произведений, а занимается лишь коллекционированием и каталогизацией ссылок, присылаемых и публикуемых на форуме нашими читателями. Если вы являетесь правообладателем какого-либо представленного материала и не желаете чтобы ссылка на него находилась в нашем каталоге, свяжитесь с нами и мы незамедлительно удалим её. Файлы для обмена на трекере предоставлены пользователями сайта, и администрация не несёт ответственности за их содержание. Просьба не заливать файлы, защищенные авторскими правами, а также файлы нелегального содержания!
tracker_cron