Модераторы: K15, Младшие модераторы, Модераторы

Непутевый ученик в школе магии / Mahouka Koukou no Rettousei / The Irregular at Magic High School [TV+Sprcial] [Без хардсаба] [26+7 из 26+7] [RUS(ext), JAP+Sub] [2014, мистика, романтика, школа, BDRip] [1080p]

Сообщение Крутой перец » 25 сен 2020, 16:39

Непутевый ученик в школе магии / Mahouka Koukou no Rettousei / The Irregular at Magic High School


#777

Страна: Япония
Год выпуска: 2014
Жанр: мистика, романтика, школа
Тип: TV+Special
Продолжительность: 26 эп ~ 24 мин + 7 спешлов
Режиссер: Оно Манабу
Студия: Madhouse Studios

Описание:
Еще в XX веке наука объяснила сущность магии, но не смогла решить две проблемы – дефицит ресурсов и перенаселение Земли. Увы, в XXI веке это сделала Третья мировая, после которой человечество уменьшилось вдвое, а власть окончательно перешла к магическим кланам, корпорациям и прочим хунтам. Теперь мощь страны определяется не ракетами, а волшебниками, поэтому в Японии юные таланты собирают в Первую старшую школу при столичном магическом университете. Миюки Сиба легко прошла в элитную группу, которую здесь зовут «цветами», а вот ее старший брат по ряду причин попал в разряд «сорняков», почти лишенных дара. Строго наказав сестренке молчать, Тацуя Сиба приготовился учиться, терпеть и не отсвечивать. Да, да, вы правы – не получилось!
До этого «цветочки» относились к «сорнякам» снисходительно (третий сорт – не брак!) или откровенно презирали «недомагов». Харизма Тацуи, его академические успехи и мастерство в бою пошатнули привычный порядок, неформальный лидер «бездарей» быстро нажил врагов и завистников. Необычным парнем заинтересовалась президент школьного Совета Маюми Саэгуса, девушка из могущественного клана. Она пригласила в Совет сразу Тацую и Миюки, после чего у местных интриганов, бандитов и заговорщиков настало бурное обострение. Сможет ли наш герой выстоять, защитить сестру и друзей? Мы в него верим, особенно, если будет помнить, что главное оружие мага – не убойная сила, а спокойствие и светлая голова!


© Hollow, World Art

Качество: BDRip
Тип релиза: Без хардсаба
Формат видео: MKV
Наличие линковки: Нет
Релиз/Автор рипа: [Beatrice-Raws]
Видео: HEVC, 1920х1080, ~7000 Kbps, 23.976 fps, 10 bit
Аудио:JAP FLAC, ~1000 kb/s, 48.0 kHz, 2 ch
Rus(ext) AC-3, 48.0 kHz, 2ch, 192 Kbps Двухголосая (муж/жен.) BalFor & Oriko (AniDub) 1-26 эп
Rus(ext) AC-3, 48.0 kHz, 2ch, 192 Kbps Двухголосая (муж/жен.) Shuuma & NesTea (SHIZA Project) 1-7 спешл
Субтитры: RUS(ext): ASS, Crisalide & Zool (полные/надписи)
Код: Выделить всё
General
Unique ID                   : 264280922525520903917454741250660358736 (0xC6D2A77C6B03A18A6BE1AFEE45E7DA50)
Complete name               : E:\Films\Favorites\Mahouka Koukou no Rettousei\Mahouka Koukou no Rettousei [BDRip 1920x1080 HEVC FLAC]\[Beatrice-Raws] Mahouka Koukou no Rettousei 01 [BDRip 1920x1080 HEVC FLAC].mkv
Format                      : Matroska
Format version              : Version 4
File size                   : 1.31 GiB
Duration                    : 23 min 42 s
Overall bit rate mode       : Variable
Overall bit rate            : 7 936 kb/s
Encoded date                : UTC 2020-09-11 23:00:59
Writing application         : mkvmerge v50.0.0 ('Awakenings') 64-bit
Writing library             : libebml v1.4.0 + libmatroska v1.6.2
Video
ID                          : 1
Format                      : HEVC
Format/Info                 : High Efficiency Video Coding
Format profile              : Main 10@L4@Main
Codec ID                    : V_MPEGH/ISO/HEVC
Duration                    : 23 min 42 s
Bit rate                    : 6 949 kb/s
Width                       : 1 920 pixels
Height                      : 1 080 pixels
Display aspect ratio        : 16:9
Frame rate mode             : Constant
Frame rate                  : 23.976 (24000/1001) FPS
Color space                 : YUV
Chroma subsampling          : 4:2:0
Bit depth                   : 10 bits
Bits/(Pixel*Frame)          : 0.140
Stream size                 : 1.15 GiB (88%)
Title                       : BDrip by Jensen & Vladdrako & CaypoH
Writing library             : x265 3.4+20-g06c52b0fd:[Windows][MSVC 1927][64 bit] 10bit
Encoding settings           : cpuid=1049583 / frame-threads=16 / numa-pools=24,24 / wpp / pmode / pme / no-psnr / no-ssim / log-level=2 / csv / csv-log-level=0 / input-csp=1 / input-res=1920x1080 / interlace=0 / total-frames=0 / level-idc=0 / high-tier=1 / uhd-bd=0 / ref=4 / no-allow-non-conformance / no-repeat-headers / annexb / no-aud / no-hrd / info / hash=0 / no-temporal-layers / open-gop / min-keyint=23 / keyint=240 / gop-lookahead=0 / bframes=8 / b-adapt=2 / b-pyramid / bframe-bias=0 / rc-lookahead=20 / lookahead-slices=6 / scenecut=40 / hist-scenecut=0 / radl=0 / no-splice / no-intra-refresh / ctu=64 / min-cu-size=8 / no-rect / no-amp / max-tu-size=32 / tu-inter-depth=2 / tu-intra-depth=2 / limit-tu=0 / rdoq-level=2 / dynamic-rd=0.00 / no-ssim-rd / signhide / no-tskip / nr-intra=0 / nr-inter=0 / no-constrained-intra / no-strong-intra-smoothing / max-merge=5 / limit-refs=1 / no-limit-modes / me=3 / subme=7 / merange=57 / temporal-mvp / no-frame-dup / no-hme / weightp / weightb / analyze-src-pics / deblock=1:-1 / no-sao / no-sao-non-deblock / rd=5 / selective-sao=0 / no-early-skip / rskip / no-fast-intra / no-tskip-fast / no-cu-lossless / b-intra / no-splitrd-skip / rdpenalty=0 / psy-rd=2.00 / psy-rdoq=2.00 / no-rd-refine / no-lossless / cbqpoffs=-2 / crqpoffs=-2 / rc=crf / crf=16.0 / qcomp=0.72 / qpstep=4 / stats-write=0 / stats-read=0 / ipratio=1.40 / pbratio=1.30 / aq-mode=3 / aq-strength=1.03 / cutree / zone-count=0 / no-strict-cbr / qg-size=32 / no-rc-grain / qpmax=69 / qpmin=0 / no-const-vbv / sar=0 / overscan=0 / videoformat=5 / range=0 / colorprim=1 / transfer=1 / colormatrix=1 / chromaloc=0 / display-window=0 / cll=0,0 / min-luma=0 / max-luma=1023 / log2-max-poc-lsb=8 / vui-timing-info / vui-hrd-info / slices=1 / no-opt-qp-pps / no-opt-ref-list-length-pps / no-multi-pass-opt-rps / scenecut-bias=0.05 / hist-threshold=0.03 / no-opt-cu-delta-qp / no-aq-motion / no-hdr10 / no-hdr10-opt / no-dhdr10-opt / no-idr-recovery-sei / analysis-reuse-level=0 / analysis-save-reuse-level=0 / analysis-load-reuse-level=0 / scale-factor=0 / refine-intra=4 / refine-inter=0 / refine-mv=3 / refine-ctu-distortion=0 / no-limit-sao / ctu-info=0 / no-lowpass-dct / refine-analysis-type=0 / copy-pic=1 / max-ausize-factor=1.0 / dynamic-refine / no-single-sei / no-hevc-aq / no-svt / no-field / qp-adaptation-range=2.00 / no-scenecut-aware-qpconformance-window-offsets / right=0 / bottom=0 / decoder-max-rate=0
Language                    : Japanese
Default                     : Yes
Forced                      : No
Color range                 : Limited
Color primaries             : BT.709
Transfer characteristics    : BT.709
Matrix coefficients         : BT.709
Audio
ID                          : 2
Format                      : FLAC
Format/Info                 : Free Lossless Audio Codec
Codec ID                    : A_FLAC
Duration                    : 23 min 42 s
Bit rate mode               : Variable
Bit rate                    : 985 kb/s
Channel(s)                  : 2 channels
Channel layout              : L R
Sampling rate               : 48.0 kHz
Frame rate                  : 11.719 FPS (4096 SPF)
Bit depth                   : 24 bits
Compression mode            : Lossless
Stream size                 : 167 MiB (12%)
Writing library             : CUETools FLACCL 2.1.6
Language                    : Japanese
Default                     : Yes
Forced                      : No
Menu
00:00:00.000                : :Avant
00:01:48.025                : :Part A
00:12:07.977                : :Part B
00:22:05.699                : :ED
00:23:35.998                : :Next
01. Поступление, часть 1
02. Поступление, часть 2
03. Поступление, часть 3
04. Поступление, часть 4
05. Поступление, часть 5
06. Поступление, часть 6
07. Поступление, часть 7
08. Турнир девяти школ, часть 1
09. Турнир девяти школ, часть 2
10. Турнир девяти школ, часть 3
11. Турнир девяти школ, часть 4
12. Турнир девяти школ, часть 5
13. Турнир девяти школ, часть 6
14. Турнир девяти школ, часть 7
15. Турнир девяти школ, часть 8
16. Турнир девяти школ, часть 9
17. Турнир девяти школ, часть 10
18. Турнир девяти школ, часть 11
19. Беспорядки в Иокогаме, часть 1
20. Беспорядки в Иокогаме, часть 2
21. Беспорядки в Иокогаме, часть 3
22. Беспорядки в Иокогаме, часть 4
23. Беспорядки в Иокогаме, часть 5
24. Беспорядки в Иокогаме, часть 6
25. Беспорядки в Иокогаме, часть 7
26. Беспорядки в Иокогаме, часть 8
Крутой перец
Аватара пользователя
 
Раздал: 265.74 ГБ
Скачал: 1.45 ГБ
Ратио: 183.536
Сообщения: 198
Зарегистрирован: 10 июл 2014, 11:59
  • Торрент
Автор: Крутой перец Хэш: b3f39a47f7fb1aecdb694d9dd75ad6f7e5bf1e21
Добавлен: 25 сен 2020, 16:39 Приватный: Нет (DHT включён)
Статус: Проверен
Размер: 32.25 ГБ (34 622 996 126 байт)
Изменил:
---
Скачали: 0 (Раздающих: 0%)
Причина:
---
Здоровье: 100%
Сидеров: 7 Личеров: 2
Скорость раздачи: 0 байт/сек Скорость скачивания: 0 байт/сек
Последний сидер: 8 месяцев 7 дней 9 часов 9 минут 23 секунды назад Последний личер: 8 месяцев 7 дней 9 часов 9 минут 23 секунды назад
Скачать торрент
Скачать торрент
[ Размер 179.58 КБ / Просмотров 0 ]

Форум Статистика

Кто сейчас на конференции

Сейчас этот форум просматривают: нет зарегистрированных пользователей и гости: 1

  • Похожие торренты
    Ответы
    Просмотры
    Последнее сообщение

Настройки

Вернуться в Аниме

cron
Ресурс не предоставляет электронные версии произведений, а занимается лишь коллекционированием и каталогизацией ссылок, присылаемых и публикуемых на форуме нашими читателями. Если вы являетесь правообладателем какого-либо представленного материала и не желаете чтобы ссылка на него находилась в нашем каталоге, свяжитесь с нами и мы незамедлительно удалим её. Файлы для обмена на трекере предоставлены пользователями сайта, и администрация не несёт ответственности за их содержание. Просьба не заливать файлы, защищенные авторскими правами, а также файлы нелегального содержания!