Модераторы: K15, Младшие модераторы, Модераторы

Большая панда и маленькая панда: Дождливый день в цирке / Panda Kopanda: Amefuri Circus no Maki / Panda! Go Panda!: Rainy Day Circus (Такахата Исао) [Movie] [без хардсаба] [RUS(ext), ENG, JAP+Sub] [1973, комедия, сказка, BDRip] [720p]

Сообщение Крутой перец » 25 сен 2020, 16:39

Большая панда и маленькая панда


Panda! Go Panda!
#777

Год выпуска: 1973
Страна: Япония
Жанр: приключения, комедия
Продолжительность: 00:38:06
Перевод:русские субтитры от RUSCICO (полные/вспомогательные)
[*]английские субтитры от neo1024
Озвучка:многоголосая с R5 от RUSCICO
[*]одноголосая (муж.) А. Толстоброва

Режиссер: Такахата Исао
Студия:

Описание:
Семья из двух медведей и одной девочки – Папа-Панда, Панди и Мимико – живет дружно и счастливо. Совершенно неожиданно к ним в дом забредает маленький ручной тигренок, и Мимико с пандами оказывают гостю всяческое гостеприимство. Оказывается, в их городишко приехал цирк!

© Анастасия Розанова, World Art

Информационные ссылки: AniDB || World Art || MAL

Качество: BDRip
Энкод: neo1024
Тип видео: без хардсаба
Формат: mkv
Видео: H.264 (Hi10p), 960x720, 7702 Kbps, 23.976 fps
Аудио RUS(ext) 1: AC3, 48000Hz, 112 Kbps, 1ch |RUSCICO|
Аудио RUS(ext) 2: AC3, 48000Hz, 256 Kbps, 2ch |А. Толстобров|
Аудио ENG: AC3, 48000Hz, 192 Kbps, 2ch |Geneon|
Аудио JAP: AC3, 48000Hz, 640 Kbps, 2ch

Код: Выделить всё
General
Unique ID                                : 239751557976760005158250219926847191015 (0xB45E7870DBEF11CAA930A00F004B77E7)
Complete name                            : E:\Panda Kopanda - Amefuri Circus no Maki [720p]\Panda Kopanda - Amefuri Circus no Maki [BDRip 960x720 x264 AC3].mkv
Format                                   : Matroska
Format version                           : Version 4 / Version 2
File size                                : 2.27 GiB
Duration                                 : 38mn 5s
Overall bit rate                         : 8 536 Kbps
Movie name                               : Panda Kopanda (2 films)
Encoded date                             : UTC 2013-06-27 20:10:15
Writing application                      : mkvmerge v6.2.0 ('Promised Land') built on Apr 28 2013 12:22:01
Writing library                          : libebml v1.3.0 + libmatroska v1.4.0
Video
ID                                       : 1
Format                                   : AVC
Format/Info                              : Advanced Video Codec
Format profile                           : High 10@L5.0
Format settings, CABAC                   : Yes
Format settings, ReFrames                : 16 frames
Codec ID                                 : V_MPEG4/ISO/AVC
Duration                                 : 38mn 5s
Bit rate                                 : 7 534 Kbps
Width                                    : 960 pixels
Height                                   : 720 pixels
Display aspect ratio                     : 4:3
Frame rate mode                          : Constant
Frame rate                               : 23.976 fps
Color space                              : YUV
Chroma subsampling                       : 4:2:0
Bit depth                                : 10 bits
Scan type                                : Progressive
Bits/(Pixel*Frame)                       : 0.455
Stream size                              : 2.00 GiB (88%)
Title                                    : Japanese (x264-10bit, 960x720, 23.976fps, 7600kbps)
Language                                 : Japanese
Default                                  : Yes
Forced                                   : No
Audio #1
ID                                       : 2
Format                                   : AC-3
Format/Info                              : Audio Coding 3
Mode extension                           : CM (complete main)
Format settings, Endianness              : Big
Codec ID                                 : A_AC3
Duration                                 : 38mn 5s
Bit rate mode                            : Constant
Bit rate                                 : 640 Kbps
Channel(s)                               : 2 channels
Channel positions                        : Front: L R
Sampling rate                            : 48.0 KHz
Bit depth                                : 16 bits
Compression mode                         : Lossy
Delay relative to video                  : 18ms
Stream size                              : 174 MiB (7%)
Language                                 : Japanese
Default                                  : Yes
Forced                                   : No
Audio #2
ID                                       : 3
Format                                   : AC-3
Format/Info                              : Audio Coding 3
Mode extension                           : CM (complete main)
Format settings, Endianness              : Big
Codec ID                                 : A_AC3
Duration                                 : 38mn 5s
Bit rate mode                            : Constant
Bit rate                                 : 192 Kbps
Channel(s)                               : 2 channels
Channel positions                        : Front: L R
Sampling rate                            : 48.0 KHz
Bit depth                                : 16 bits
Compression mode                         : Lossy
Delay relative to video                  : 18ms
Stream size                              : 52.3 MiB (2%)
Language                                 : English
Default                                  : No
Forced                                   : No
Крутой перец
Аватара пользователя
 
Раздал: 265.74 ГБ
Скачал: 1.45 ГБ
Ратио: 183.536
Сообщения: 198
Зарегистрирован: 10 июл 2014, 11:59
  • Торрент
Автор: Крутой перец Хэш: f3118c89f936f37edcd55b827575c0936d805b49
Добавлен: 25 сен 2020, 16:39 Приватный: Нет (DHT включён)
Статус: Проверен
Размер: 2.37 ГБ (2 544 342 540 байт)
Изменил:
---
Скачали: 0 (Раздающих: 0%)
Причина:
---
Здоровье: 100%
Сидеров: 5 Личеров: 1
Скорость раздачи: 0 байт/сек Скорость скачивания: 0 байт/сек
Последний сидер: 9 месяцев 21 день 19 часов 38 минут 39 секунд назад Последний личер: 9 месяцев 21 день 19 часов 38 минут 39 секунд назад
Скачать торрент
Скачать торрент
[ Размер 13.28 КБ / Просмотров 0 ]

Форум Статистика

Кто сейчас на конференции

Сейчас этот форум просматривают: нет зарегистрированных пользователей и гости: 1

  • Похожие торренты
    Ответы
    Просмотры
    Последнее сообщение

Настройки

Вернуться в Аниме

cron
Ресурс не предоставляет электронные версии произведений, а занимается лишь коллекционированием и каталогизацией ссылок, присылаемых и публикуемых на форуме нашими читателями. Если вы являетесь правообладателем какого-либо представленного материала и не желаете чтобы ссылка на него находилась в нашем каталоге, свяжитесь с нами и мы незамедлительно удалим её. Файлы для обмена на трекере предоставлены пользователями сайта, и администрация не несёт ответственности за их содержание. Просьба не заливать файлы, защищенные авторскими правами, а также файлы нелегального содержания!
tracker_cron