Модераторы: K15, Младшие модераторы, Модераторы

Лексс / Lexx (сезон 1-4, серии 1-61 из 61)(Крис Боулд и др.) [1997-2002, фантастика, фэнтези, комедия, приключения, DVD Remux]

Сообщение Sovetnik » 25 авг 2020, 22:01

Лексс / Lexx
(сезон 1-4, серии 1-61 из 61)


#777

Год выпуска: 1997-2002
Производство: Канада, Германия, Великобритания, США
Продолжительность: ~00:51:00 серия
Перевод: Двуголосый закадровый, профессиональный - AXN Sci-fi, ТВ 6; одноголосый закадровый от Е.Лурье.
Жанр: фантастика, фэнтези, комедия, приключения

Режиссер: Крис Боулд, Пол Донован, Кристоф Шреве

Актеры:
Майкл МакМанус, Ксения Сиберг, Патриция Зентилли, Рольф Канис, Лекс Гигерофф, Брайан Дауни, Найджел Беннетт, Ева Хаберманн, Том Галлант, Джеффри Хиршфилд и др.

Описание:
Бесстрашный воин погибшей расы Бруннен-Джи, младший помощник вспомогательного заместителя курьера Стэнли Твидл, очаровательная раба любви Зэв с характером межзвездного ящера и романтическая голова-робот 790 захватывают огромный живой космический корабль «Лексc», самое мощное оружие разрушения в двух Вселенных.
Спасаясь от гнева Божественной Тени, безжалостного властителя Вселенной Света, они оказываются в неведомой Вселенной Тьмы, где каждый неосторожный шаг может стоить им жизни.
Приземляясь на загадочных планетах, где гостям не всегда бывают рады, ускользая от коварных ловушек и помогая всем, кто попал в беду, подчас находясь на волосок от гибели, отчаянные межгалактические странники переживут невероятные приключения объединенные одной общей целью — найти себе новый дом.






Качество видео: DVD Remux
Видео: Mpeg-2, 720x480, ~4500-9800 Kbps
Аудио #1 Rus: AC3, 2 ch, 192 kbps (AXN Sci-fi)
Аудио #2 Rus: AC3, 2 ch, 224 kbps (ТВ 6)
Аудио #3 Eng: AC3, 2 ch, 224 kbps (оригинал)

1. Я поклоняюсь Его Тени (I Worship His Shadow)
2. Сверхновая (Super Nova)
3. Питающая форма (Eating Pattern)
4. ГигаТень (Giga Shadow)
Код: выделить всеGeneral
Unique ID                                : 254636480471094169294624243496056644503 (0xBF9133C7C99ABE76BA0E91592645E397)
Complete name                            : 1. Я поклоняюсь Его Тени (I Worship His Shadow).mkv
Format                                   : Matroska
Format version                           : Version 4 / Version 2
File size                                : 3.95 GiB
Duration                                 : 1h 33mn
Overall bit rate mode                    : Variable
Overall bit rate                         : 6 066 Kbps
Encoded date                             : UTC 2015-12-27 08:23:36
Writing application                      : mkvmerge v8.3.0 ('Over the Horizon') 32bit
Writing library                          : libebml v1.3.1 + libmatroska v1.4.2

Video
ID                                       : 1
Format                                   : MPEG Video
Format version                           : Version 2
Format profile                           : Main@Main
Format settings, BVOP                    : Yes
Format settings, Matrix                  : Custom
Format settings, GOP                     : M=3, N=15
Format settings, picture structure       : Frame
Codec ID                                 : V_MPEG2
Codec ID/Info                            : MPEG 1 or 2 Video
Duration                                 : 1h 32mn
Bit rate mode                            : Variable
Bit rate                                 : 5 113 Kbps
Maximum bit rate                         : 9 000 Kbps
Width                                    : 720 pixels
Height                                   : 480 pixels
Display aspect ratio                     : 4:3
Frame rate mode                          : Constant
Frame rate                               : 29.970 (30000/1001) fps
Standard                                 : NTSC
Color space                              : YUV
Chroma subsampling                       : 4:2:0
Bit depth                                : 8 bits
Scan type                                : Interlaced
Scan order                               : Top Field First
Compression mode                         : Lossy
Bits/(Pixel*Frame)                       : 0.494
Time code of first frame                 : 00:00:00:00
Time code source                         : Group of pictures header
GOP, Open/Closed                         : Closed
Stream size                              : 3.32 GiB (84%)
Default                                  : Yes
Forced                                   : No

Audio #1
ID                                       : 2
Format                                   : AC-3
Format/Info                              : Audio Coding 3
Mode extension                           : CM (complete main)
Format settings, Endianness              : Big
Codec ID                                 : A_AC3
Duration                                 : 1h 33mn
Bit rate mode                            : Constant
Bit rate                                 : 192 Kbps
Channel(s)                               : 2 channels
Channel positions                        : Front: L R
Sampling rate                            : 48.0 KHz
Frame rate                               : 31.250 fps (1536 spf)
Compression mode                         : Lossy
Stream size                              : 128 MiB (3%)
Title                                    : AXN Sci-fi
Language                                 : Russian
Default                                  : No
Forced                                   : No

Audio #2
ID                                       : 3
Format                                   : AC-3
Format/Info                              : Audio Coding 3
Mode extension                           : CM (complete main)
Format settings, Endianness              : Big
Codec ID                                 : A_AC3
Duration                                 : 1h 32mn
Bit rate mode                            : Constant
Bit rate                                 : 384 Kbps
Channel(s)                               : 6 channels
Channel positions                        : Front: L C R, Side: L R, LFE
Sampling rate                            : 48.0 KHz
Frame rate                               : 31.250 fps (1536 spf)
Compression mode                         : Lossy
Stream size                              : 255 MiB (6%)
Title                                    : ТВ 6
Language                                 : Russian
Default                                  : No
Forced                                   : No

Audio #3
ID                                       : 4
Format                                   : AC-3
Format/Info                              : Audio Coding 3
Mode extension                           : CM (complete main)
Format settings, Endianness              : Big
Codec ID                                 : A_AC3
Duration                                 : 1h 32mn
Bit rate mode                            : Constant
Bit rate                                 : 384 Kbps
Channel(s)                               : 6 channels
Channel positions                        : Front: L C R, Side: L R, LFE
Sampling rate                            : 48.0 KHz
Frame rate                               : 31.250 fps (1536 spf)
Compression mode                         : Lossy
Stream size                              : 255 MiB (6%)
Language                                 : English
Default                                  : No
Forced                                   : No

Скриншоты:


1. Мантрид (Mantrid)
2. Терминал (Terminal)
3. Лайекка (Lyekka)
4. Корабль Любви (Luvliner)
5. Смехопанорама (Lafftrak)
6. Суд над Стеном (Stan's Trial)
7. Сезон любви (Love Grows)
8. Белая Шваль (White Trash)
9. 791
10. Разбудите мертвеца (Wake the Dead)
11. Нук (Nook)
12. Норб (Norb)
13. Сумерки (Twilight)
14. Пятна на Небе (Patches in the Sky)
15. Воз (Woz)
16. Паутина (The Web)
17. Сеть (The Net)
18. Представление (Brigadoom)
19. Брайзон (Brizon)
20. Гибель Вселенной (End of the Universe)
Код: выделить всеGeneral
Unique ID                                : 205002323209965686909814168148896578238 (0x9A3A02E4283D2DF6AB0157AE223EFABE)
Complete name                            : 1. Мантрид (Mantrid).mkv
Format                                   : Matroska
Format version                           : Version 4 / Version 2
File size                                : 1.88 GiB
Duration                                 : 47mn 50s
Overall bit rate mode                    : Variable
Overall bit rate                         : 5 635 Kbps
Encoded date                             : UTC 2015-12-27 10:36:47
Writing application                      : mkvmerge v8.3.0 ('Over the Horizon') 32bit
Writing library                          : libebml v1.3.1 + libmatroska v1.4.2

Video
ID                                       : 1
Format                                   : MPEG Video
Format version                           : Version 2
Format profile                           : Main@Main
Format settings, BVOP                    : Yes
Format settings, Matrix                  : Custom
Format settings, GOP                     : M=3, N=15
Format settings, picture structure       : Frame
Codec ID                                 : V_MPEG2
Codec ID/Info                            : MPEG 1 or 2 Video
Duration                                 : 47mn 49s
Bit rate mode                            : Variable
Bit rate                                 : 4 994 Kbps
Maximum bit rate                         : 9 800 Kbps
Width                                    : 720 pixels
Height                                   : 480 pixels
Display aspect ratio                     : 4:3
Frame rate mode                          : Constant
Frame rate                               : 29.970 (30000/1001) fps
Standard                                 : NTSC
Color space                              : YUV
Chroma subsampling                       : 4:2:0
Bit depth                                : 8 bits
Scan type                                : Interlaced
Scan order                               : Top Field First
Compression mode                         : Lossy
Bits/(Pixel*Frame)                       : 0.482
Time code of first frame                 : 00:00:00:00
Time code source                         : Group of pictures header
GOP, Open/Closed                         : Closed
Stream size                              : 1.67 GiB (89%)
Default                                  : Yes
Forced                                   : No

Audio #1
ID                                       : 2
Format                                   : AC-3
Format/Info                              : Audio Coding 3
Mode extension                           : CM (complete main)
Format settings, Endianness              : Big
Codec ID                                 : A_AC3
Duration                                 : 47mn 50s
Bit rate mode                            : Constant
Bit rate                                 : 192 Kbps
Channel(s)                               : 2 channels
Channel positions                        : Front: L R
Sampling rate                            : 48.0 KHz
Frame rate                               : 31.250 fps (1536 spf)
Compression mode                         : Lossy
Delay relative to video                  : 32ms
Stream size                              : 65.7 MiB (3%)
Title                                    : AXN Sci-fi
Language                                 : Russian
Default                                  : No
Forced                                   : No

Audio #2
ID                                       : 3
Format                                   : AC-3
Format/Info                              : Audio Coding 3
Mode extension                           : CM (complete main)
Format settings, Endianness              : Big
Codec ID                                 : A_AC3
Duration                                 : 47mn 49s
Bit rate mode                            : Constant
Bit rate                                 : 224 Kbps
Channel(s)                               : 2 channels
Channel positions                        : Front: L R
Sampling rate                            : 48.0 KHz
Frame rate                               : 31.250 fps (1536 spf)
Compression mode                         : Lossy
Stream size                              : 76.6 MiB (4%)
Title                                    : ТВ 6
Language                                 : Russian
Default                                  : No
Forced                                   : No

Audio #3
ID                                       : 4
Format                                   : AC-3
Format/Info                              : Audio Coding 3
Format profile                           : Dolby Digital
Mode extension                           : CM (complete main)
Format settings, Endianness              : Big
Codec ID                                 : A_AC3
Duration                                 : 47mn 49s
Bit rate mode                            : Constant
Bit rate                                 : 224 Kbps
Channel(s)                               : 2 channels
Channel positions                        : Front: L R
Sampling rate                            : 48.0 KHz
Frame rate                               : 31.250 fps (1536 spf)
Compression mode                         : Lossy
Stream size                              : 76.6 MiB (4%)
Language                                 : English
Default                                  : No
Forced                                   : No

Скриншоты:


1. Огонь и Вода (Fire and Water)
2. Мэй (May)
3. Игроград (Gametown)
4. Трахоград (Boomtown)
5. Гондола (Gondola)
6. Город Кей (K-Town)
7. Туннели (Tunnels)
8. Ключ (The Key)
9. Сад (Garden)
10. Битва (Battle)
11. Девоград (Girltown)
12. Пляж (The Beach)
13. Небеса и пекло (Heaven and Hell)
Код: выделить всеGeneral
Unique ID                                : 177219407779617384925573413833348395336 (0x8553376719A4B4E4B8E839E26B5AB148)
Complete name                            : 1. Огонь и Вода (Fire and Water).mkv
Format                                   : Matroska
Format version                           : Version 4 / Version 2
File size                                : 1.45 GiB
Duration                                 : 47mn 53s
Overall bit rate mode                    : Variable
Overall bit rate                         : 4 339 Kbps
Encoded date                             : UTC 2015-12-29 07:36:59
Writing application                      : mkvmerge v8.3.0 ('Over the Horizon') 32bit
Writing library                          : libebml v1.3.1 + libmatroska v1.4.2

Video
ID                                       : 1
Format                                   : MPEG Video
Format version                           : Version 2
Format profile                           : Main@Main
Format settings, BVOP                    : Yes
Format settings, Matrix                  : Custom
Format settings, GOP                     : M=3, N=15
Format settings, picture structure       : Frame
Codec ID                                 : V_MPEG2
Codec ID/Info                            : MPEG 1 or 2 Video
Duration                                 : 47mn 53s
Bit rate mode                            : Variable
Bit rate                                 : 3 729 Kbps
Maximum bit rate                         : 7 000 Kbps
Width                                    : 720 pixels
Height                                   : 480 pixels
Display aspect ratio                     : 4:3
Frame rate mode                          : Constant
Frame rate                               : 29.970 (30000/1001) fps
Standard                                 : NTSC
Color space                              : YUV
Chroma subsampling                       : 4:2:0
Bit depth                                : 8 bits
Scan type                                : Interlaced
Scan order                               : Top Field First
Compression mode                         : Lossy
Bits/(Pixel*Frame)                       : 0.360
Time code of first frame                 : 09:59:59;00
Time code source                         : Group of pictures header
GOP, Open/Closed                         : Closed
Stream size                              : 1.25 GiB (86%)
Default                                  : Yes
Forced                                   : No

Audio #1
ID                                       : 2
Format                                   : AC-3
Format/Info                              : Audio Coding 3
Mode extension                           : CM (complete main)
Format settings, Endianness              : Big
Codec ID                                 : A_AC3
Duration                                 : 47mn 53s
Bit rate mode                            : Constant
Bit rate                                 : 192 Kbps
Channel(s)                               : 2 channels
Channel positions                        : Front: L R
Sampling rate                            : 48.0 KHz
Frame rate                               : 31.250 fps (1536 spf)
Compression mode                         : Lossy
Stream size                              : 65.8 MiB (4%)
Title                                    : AXN Sci-fi
Language                                 : Russian
Default                                  : No
Forced                                   : No

Audio #2
ID                                       : 3
Format                                   : AC-3
Format/Info                              : Audio Coding 3
Mode extension                           : CM (complete main)
Format settings, Endianness              : Big
Codec ID                                 : A_AC3
Duration                                 : 47mn 52s
Bit rate mode                            : Constant
Bit rate                                 : 192 Kbps
Channel(s)                               : 2 channels
Channel positions                        : Front: L R
Sampling rate                            : 48.0 KHz
Frame rate                               : 31.250 fps (1536 spf)
Compression mode                         : Lossy
Stream size                              : 65.8 MiB (4%)
Title                                    : ТВ 6
Language                                 : Russian
Default                                  : No
Forced                                   : No

Audio #3
ID                                       : 4
Format                                   : AC-3
Format/Info                              : Audio Coding 3
Mode extension                           : CM (complete main)
Format settings, Endianness              : Big
Codec ID                                 : A_AC3
Duration                                 : 47mn 52s
Bit rate mode                            : Constant
Bit rate                                 : 224 Kbps
Channel(s)                               : 2 channels
Channel positions                        : Front: L R
Sampling rate                            : 48.0 KHz
Frame rate                               : 31.250 fps (1536 spf)
Compression mode                         : Lossy
Stream size                              : 76.7 MiB (5%)
Language                                 : English
Default                                  : No
Forced                                   : No

Скриншоты:


1. Маленькая голубая планета (Little Blue Planet)
2. Техасский Лексс (Texx Lexx)
3. P4X
4. Долой Стена (Stan Down)
5. Ксевивор (Xevivor)
6. Скала (The Rock)
7. Вальпургиева ночь (Walpurgis Night)
8. Влад (Vlad)
9. Мягенький папочка (Fluff Daddy)
10. Волшебная крошка (Magic Baby)
11. Кошмар в летнюю ночь (A Midsummer's Nightmare)
12. Плохая морковь (Bad Carrot)
13. 769
14. Прайм Ридж (Prime Ridge)
15. Морт (Mort)
16. Мосс (Moss)
17. Голландское лакомство (Dutch Treat)
18. Игра (The Game)
19. Комета Галлея (Haley's Comet)
20. Апокалексс сегодня (Apocalexx Now)
21. Вива Лексс Вегас (Viva Lexx Vegas)
22. Трип (Trip)
23. Лайекка против Японии (Lyekka vs Japan)
24. Йо Уэй Йо (Yo Way Yo)
Код: выделить всеGeneral
Unique ID                                : 218084198757773296424591259974493321280 (0xA4117D2724AF27078CD76DDDC134B840)
Complete name                            : 1. Маленькая голубая планета (Little Blue Planet).mkv
Format                                   : Matroska
Format version                           : Version 4 / Version 2
File size                                : 1.74 GiB
Duration                                 : 45mn 12s
Overall bit rate mode                    : Variable
Overall bit rate                         : 5 516 Kbps
Encoded date                             : UTC 2015-12-29 16:48:14
Writing application                      : mkvmerge v8.3.0 ('Over the Horizon') 32bit
Writing library                          : libebml v1.3.1 + libmatroska v1.4.2

Video
ID                                       : 1
Format                                   : MPEG Video
Format version                           : Version 2
Format profile                           : Main@Main
Format settings, BVOP                    : Yes
Format settings, Matrix                  : Custom
Format settings, GOP                     : M=3, N=15
Format settings, picture structure       : Frame
Codec ID                                 : V_MPEG2
Codec ID/Info                            : MPEG 1 or 2 Video
Duration                                 : 45mn 11s
Bit rate mode                            : Variable
Bit rate                                 : 4 425 Kbps
Maximum bit rate                         : 6 000 Kbps
Width                                    : 720 pixels
Height                                   : 480 pixels
Display aspect ratio                     : 4:3
Frame rate mode                          : Constant
Frame rate                               : 29.970 (30000/1001) fps
Standard                                 : NTSC
Color space                              : YUV
Chroma subsampling                       : 4:2:0
Bit depth                                : 8 bits
Scan type                                : Interlaced
Scan order                               : Top Field First
Compression mode                         : Lossy
Bits/(Pixel*Frame)                       : 0.427
Time code of first frame                 : 09:59:59;00
Time code source                         : Group of pictures header
GOP, Open/Closed                         : Closed
Stream size                              : 1.40 GiB (80%)
Default                                  : Yes
Forced                                   : No

Audio #1
ID                                       : 2
Format                                   : AC-3
Format/Info                              : Audio Coding 3
Mode extension                           : CM (complete main)
Format settings, Endianness              : Big
Codec ID                                 : A_AC3
Duration                                 : 45mn 12s
Bit rate mode                            : Constant
Bit rate                                 : 192 Kbps
Channel(s)                               : 2 channels
Channel positions                        : Front: L R
Sampling rate                            : 48.0 KHz
Frame rate                               : 31.250 fps (1536 spf)
Compression mode                         : Lossy
Stream size                              : 62.1 MiB (3%)
Title                                    : AXN Sci-fi
Language                                 : Russian
Default                                  : No
Forced                                   : No

Audio #2
ID                                       : 3
Format                                   : AC-3
Format/Info                              : Audio Coding 3
Mode extension                           : CM (complete main)
Format settings, Endianness              : Big
Codec ID                                 : A_AC3
Duration                                 : 45mn 11s
Bit rate mode                            : Constant
Bit rate                                 : 448 Kbps
Channel(s)                               : 6 channels
Channel positions                        : Front: L C R, Side: L R, LFE
Sampling rate                            : 48.0 KHz
Frame rate                               : 31.250 fps (1536 spf)
Compression mode                         : Lossy
Stream size                              : 145 MiB (8%)
Title                                    : ТВ 6
Language                                 : Russian
Default                                  : No
Forced                                   : No

Audio #3
ID                                       : 4
Format                                   : AC-3
Format/Info                              : Audio Coding 3
Mode extension                           : CM (complete main)
Format settings, Endianness              : Big
Codec ID                                 : A_AC3
Duration                                 : 45mn 11s
Bit rate mode                            : Constant
Bit rate                                 : 448 Kbps
Channel(s)                               : 6 channels
Channel positions                        : Front: L C R, Side: L R, LFE
Sampling rate                            : 48.0 KHz
Frame rate                               : 31.250 fps (1536 spf)
Compression mode                         : Lossy
Stream size                              : 145 MiB (8%)
Language                                 : English
Default                                  : No
Forced                                   : No

Скриншоты:


Скриншоты:



Время раздачи: 24/7
Sovetnik
Аватара пользователя
 
Раздал: 32.13 ТБ
Скачал: 13.11 ГБ
Ратио: 2510.256
Сообщения: 1873
Зарегистрирован: 13 фев 2014, 05:19
  • Торрент
Автор: Sovetnik Хэш: 986ebff963e8a78f80995bfb6cdbf533de412070
Добавлен: 25 авг 2020, 22:01 Приватный: Нет (DHT включён)
Статус: Проверен
Размер: 115.5 ГБ (124 013 205 382 байт)
Изменил:
---
Скачали: 7 (Раздающих: 0%)
Причина:
---
Здоровье: 100%
Сидеров: 5 Личеров: 2
Скорость раздачи: 0 байт/сек Скорость скачивания: 0 байт/сек
Последний сидер: 4 месяца 1 день 10 часов 32 минуты 30 секунд назад Последний личер: 4 месяца 1 день 10 часов 32 минуты 30 секунд назад
Скачать торрент
Скачать торрент
[ Размер 297.34 КБ / Просмотров 0 ]

Re: Лексс / Lexx (сезон 1-4, серии 1-61 из 61)(Крис Боулд и др.) [1997-2002, фантастика, фэнтези, комедия, приключения, DVD Remux]

Сообщение Sovetnik » 13 фев 2021, 00:27

Kenway писал(а):спасибо


Качайте и смотрите во Благо !)
Sovetnik
Аватара пользователя
 
Раздал: 32.13 ТБ
Скачал: 13.11 ГБ
Ратио: 2510.256
Сообщения: 1873
Зарегистрирован: 13 фев 2014, 05:19

Форум Статистика

Кто сейчас на конференции

Сейчас этот форум просматривают: нет зарегистрированных пользователей и гости: 1

  • Похожие торренты
    Ответы
    Просмотры
    Последнее сообщение

Настройки

Вернуться в Сериалы

cron
Ресурс не предоставляет электронные версии произведений, а занимается лишь коллекционированием и каталогизацией ссылок, присылаемых и публикуемых на форуме нашими читателями. Если вы являетесь правообладателем какого-либо представленного материала и не желаете чтобы ссылка на него находилась в нашем каталоге, свяжитесь с нами и мы незамедлительно удалим её. Файлы для обмена на трекере предоставлены пользователями сайта, и администрация не несёт ответственности за их содержание. Просьба не заливать файлы, защищенные авторскими правами, а также файлы нелегального содержания!
tracker_cron