Модераторы: K15, Младшие модераторы, Модераторы

Проект "Орфей" / Project Orpheus / Сезон: 1 / Серии: 1-12 из 12 ( Аллард Вестенбринк, Деннис Ботс, Иван Лопез Нунье) [2016, Нидерланды, Триллер, драма, WEB-DL 1080p] MVO (Showjet, Кинопоказ HD1) + Original

Сообщение 7Max7 » 24 май 2020, 21:07

Проект "Орфей" / Project Orpheus


#777

Год выпуска: 2016
Страна: Нидерланды
Продолжительность: ~00:45:00
Перевод: Профессиональный (многоголосый закадровый) | Showjet
Перевод: Профессиональный (многоголосый закадровый) | Кинопоказ HD1
Оригинальная аудиодорожка: Нидерландский
Субтитры: Отсутствуют
Реклама: Отсутствует
Жанр: Триллер, драма

Режиссёр: Аллард Вестенбринк, Деннис Ботс, Иван Лопез Нунье

В ролях: Лиза Смит, Стефани ван Лирсум, Тобиас Нироп, Виллем Воогд, Гай Ван Сэнд, Санне Лангелаар, Мандела Ви Ви, Майк Виртс, Али Бен Хорстинг, Ханс Дагелет ...

Описание:
Пятеро лучших студентов-медиков получают уникальный шанс принять участие в элитной тренинг-программе, организованной выдающимся профессором в одной из лучших клиник страны. Вскоре герои обнаруживают, что их именитый наставник проводит чрезвычайно опасный научный эксперимент: погружает пациентов в состояние клинической смерти, после которой они возвращаются к жизни совершенно другими людьми…

Качество: WEB-DL 1080p
Контейнер: MKV
Видео: 1920x1080, 25.000 fps, MPEG-4 AVC, ~4486 kbps
Аудио Rus #1: AC3, 48.0 kHz, 3/2 (L,C,R,l,r) + LFE ch, 384 kbps | Showjet
Аудио Rus #2: AC3, 48.0 kHz, 2ch, 192 kbps | Кинопоказ HD1
Аудио Nld #3: AC3, 48.0 kHz, 3/2 (L,C,R,l,r) + LFE ch, 384 kbps


Картинка из онлайн-кинотеатра
Озвучка #1 из того же корытца что и видео….
Озвучка #2 из раздачи black.bart

Код: Выделить всё
Общее
Уникальный идентификатор                 : 126060155814971584683699610731169817449 (0x5ED64D8A0E564F1D9C0218FC6839A369)
Полное имя                               : F:\Project.Orpheus.S01.1080p.WEB-DL.H.264.Rus.Nld-@EniaHD\Project.Orpheus.S01E07.1080p.WEB-DL.H.264.Rus.Nld-@EniaHD.mkv
Формат                                   : Matroska
Версия формата                           : Version 4
Размер файла                             : 1,79 Гбайт
Продолжительность                        : 46 м. 55 с.
Общий поток                              : 5449 Кбит/сек
Название фильма                          : Project.Orpheus.S01E07.1080p.WEB-DL.H.264-ParovozN@EniaHD
Дата кодирования                         : UTC 2019-08-23 22:13:00
Программа кодирования                    : mkvmerge v32.0.0 ('Astral Progressions') 32-bit
Библиотека кодирования                   : libebml v1.3.7 + libmatroska v1.5.0
Видео
Идентификатор                            : 1
Формат                                   : AVC
Формат/Информация                        : Advanced Video Codec
Профиль формата                          : High@L4
Настройки формата                        : CABAC / 4 Ref Frames
Параметр CABAC формата                   : Да
Параметр RefFrames формата               : 4 кадра
Идентификатор кодека                     : V_MPEG4/ISO/AVC
Продолжительность                        : 46 м. 55 с.
Битрейт                                  : 4486 Кбит/сек
Ширина                                   : 1920 пикселей
Высота                                   : 1080 пикселей
Соотношение сторон                       : 16:9
Режим частоты кадров                     : Переменный
Частота кадров                           : 25,000 кадров/сек
Стандарт вещания                         : PAL
Цветовое пространство                    : YUV
Субдискретизация насыщенности            : 4:2:0
Битовая глубина                          : 8 бит
Тип развёртки                            : Прогрессивная
Бит/(Пиксели*Кадры)                      : 0.087
Размер потока                            : 1,47 Гбайт (82%)
Default                                  : Да
Forced                                   : Нет
Цветовой диапазон                        : Limited
Основные цвета                           : BT.709
Характеристики трансфера                 : BT.709
Коэффициенты матрицы                     : BT.709
Аудио #1
Идентификатор                            : 2
Формат                                   : AC-3
Формат/Информация                        : Audio Coding 3
Коммерческое название                    : Dolby Digital
Идентификатор кодека                     : A_AC3
Продолжительность                        : 46 м. 55 с.
Вид битрейта                             : Постоянный
Битрейт                                  : 384 Кбит/сек
Каналы                                   : 6 каналов
Channel layout                           : L R C LFE Ls Rs
Частота                                  : 48,0 КГц
Частота кадров                           : 31,250 кадров/сек (1536 SPF)
Битовая глубина                          : 16 бит
Метод сжатия                             : С потерями
Размер потока                            : 129 Мбайт (7%)
Заголовок                                : MVO (Showjet)
Язык                                     : Russian
ServiceKind/String                       : Complete Main
Default                                  : Да
Forced                                   : Нет
Аудио #2
Идентификатор                            : 3
Формат                                   : AC-3
Формат/Информация                        : Audio Coding 3
Коммерческое название                    : Dolby Digital
Идентификатор кодека                     : A_AC3
Продолжительность                        : 46 м. 55 с.
Вид битрейта                             : Постоянный
Битрейт                                  : 192 Кбит/сек
Каналы                                   : 2 канала
Channel layout                           : L R
Частота                                  : 48,0 КГц
Частота кадров                           : 31,250 кадров/сек (1536 SPF)
Битовая глубина                          : 16 бит
Метод сжатия                             : С потерями
Размер потока                            : 64,4 Мбайт (4%)
Заголовок                                : MVO (Кинопоказ HD1)
Язык                                     : Russian
ServiceKind/String                       : Complete Main
Default                                  : Нет
Forced                                   : Нет
Аудио #3
Идентификатор                            : 4
Формат                                   : AC-3
Формат/Информация                        : Audio Coding 3
Коммерческое название                    : Dolby Digital
Идентификатор кодека                     : A_AC3
Продолжительность                        : 46 м. 55 с.
Вид битрейта                             : Постоянный
Битрейт                                  : 384 Кбит/сек
Каналы                                   : 6 каналов
Channel layout                           : L R C LFE Ls Rs
Частота                                  : 48,0 КГц
Частота кадров                           : 31,250 кадров/сек (1536 SPF)
Битовая глубина                          : 16 бит
Метод сжатия                             : С потерями
Размер потока                            : 129 Мбайт (7%)
Заголовок                                : Netherlands
Язык                                     : German
ServiceKind/String                       : Complete Main
Default                                  : Нет
Forced                                   : Нет




7Max7
Аватара пользователя
 
Раздал: 491.04 ГБ
Скачал: 3 ГБ
Ратио: 163.468
Сообщения: 413
Зарегистрирован: 14 фев 2014, 18:28
  • Торрент
Автор: 7Max7 Хэш: 57020277c0404a159960958703de6ebd4772a73e
Добавлен: 24 май 2020, 21:07 Приватный: Нет (DHT включён)
Статус: Проверен
Размер: 21.14 ГБ (22 700 161 934 байт)
Изменил:
---
Скачали: 0 (Раздающих: 0%)
Причина:
---
Здоровье: 0%
Сидеров: 0 Личеров: 0
Скорость раздачи: 0 байт/сек Скорость скачивания: 0 байт/сек
Последний сидер: Нет Последний личер: Нет
Скачать торрент
Скачать торрент
[ Размер 55.62 КБ / Просмотров 0 ]

Re: Проект "Орфей" / Project Orpheus / Сезон: 1 / Серии: 1-12 из 12 ( Аллард Вестенбринк, Деннис Ботс, Иван Лопез Нунье) [2016, Нидерланды, Триллер, драма, WEB-DL 1080p] MVO (Showjet, Кинопоказ HD1) + Original

Сообщение Basmac4 » 24 май 2020, 21:58

7Max7 писал(а):Re: Проект "Орфей" / Project Orpheus / Сезон: 1 / Серии: 1-12 из 12 ( Аллард Вестенбринк, Деннис Ботс, Иван Лопез Нунье) [2016, Нидерланды, Триллер, драма, WEB-DL 1080p] MVO (Showjet, Кинопоказ HD1) + Original


Шикарный сериал !) СПС .
Basmac4
Аватара пользователя
 
Раздал: 1.98 ТБ
Скачал: 3.04 ГБ
Ратио: 668.049
Сообщения: 121
Зарегистрирован: 01 июл 2014, 16:45

Re: Проект "Орфей" / Project Orpheus / Сезон: 1 / Серии: 1-12 из 12 ( Аллард Вестенбринк, Деннис Ботс, Иван Лопез Нунье) [2016, Нидерланды, Триллер, драма, WEB-DL 1080p] MVO (Showjet, Кинопоказ HD1) + Original

Сообщение Sovetnik » 26 май 2020, 22:43

Basmac4 писал(а):
7Max7 писал(а):Re: Проект "Орфей" / Project Orpheus / Сезон: 1 / Серии: 1-12 из 12 ( Аллард Вестенбринк, Деннис Ботс, Иван Лопез Нунье) [2016, Нидерланды, Триллер, драма, WEB-DL 1080p] MVO (Showjet, Кинопоказ HD1) + Original


Шикарный сериал !) СПС .


Поддерживаю, сериал супер !)
Sovetnik
Аватара пользователя
 
Раздал: 32.13 ТБ
Скачал: 13.11 ГБ
Ратио: 2510.256
Сообщения: 1873
Зарегистрирован: 13 фев 2014, 05:19

Форум Статистика

Кто сейчас на конференции

Сейчас этот форум просматривают: нет зарегистрированных пользователей и гости: 2

  • Похожие торренты
    Ответы
    Просмотры
    Последнее сообщение

Настройки

Вернуться в Сериалы

cron
Ресурс не предоставляет электронные версии произведений, а занимается лишь коллекционированием и каталогизацией ссылок, присылаемых и публикуемых на форуме нашими читателями. Если вы являетесь правообладателем какого-либо представленного материала и не желаете чтобы ссылка на него находилась в нашем каталоге, свяжитесь с нами и мы незамедлительно удалим её. Файлы для обмена на трекере предоставлены пользователями сайта, и администрация не несёт ответственности за их содержание. Просьба не заливать файлы, защищенные авторскими правами, а также файлы нелегального содержания!
tracker_cron