Модераторы: K15, Младшие модераторы, Модераторы

Внешние отмели / Outer Banks [S01] (Валери Уайсс и др.) [2020, драма, детектив, приключения, WEBRip 720p | D]

Сообщение Sovetnik » 16 апр 2020, 23:07

Внешние отмели / Outer Banks
[S01]


#777
Информация о фильме
Название: Внешние отмели
Оригинальное название: Outer Banks
Год выхода: 2020
Страна: США
Студия: NetFlix
Продолжительность: 10 x ~ 00:50:00
Перевод: Дублированный [Студия Пифагор по заказу Netflix]
Жанр: драма, детектив, приключения

Режиссер: Валери Уайсс, Джонас Пейт

В ролях:
Мэдисон Бэйли, Мэдлин Клайн, Джонатан Дэвисс, Чарльз Истен, Алексис Дезри Джонс, Роб Марс, Остин Норт, Руди Панкоу, Дрю Старки, Чейз Стоукс

О фильме:
Внешние отмели — 320-километровая полоса узких песчаных барьерных островов побережья Северной Каролины, начинающихся у юго-восточного края Вирджиния-Бич восточного побережья США. Именно здесь в разгар летнего сезона, который накрылся медным тазом из-за бушующего урагана, четверо подростков с помощью случайно добытой карты отправляются на поиски огромной партии золота, стоимость которой оценивается в четыреста миллионов долларов.



Файл
Кодек: H.264
Качество: WEBRip 720p
Видео: AVC, 1280x720 (16:9), 23.976 fps ~ 3000 Kbps
Звук:
E-AC3, 48 KHz, 6 ch ~ 640 Kb/s (русский)
E-AC3, 48 KHz, 6 ch ~ 640 Kb/s (английский)
Субтитры: русские, английские

General
Unique ID : 171472668943392670538942566442561848490 (0x81006F4D7E5A12F083FB8232110244AA)
Complete name : J:wotOuter.Banks.S01.720p.NF.WEBRipOuter.Banks.S01E01.720p.WEB-GHOSTS.mkv
Format : Matroska
Format version : Version 4 / Version 2
File size : 1.86 GiB
Duration : 54mn 13s
Overall bit rate mode : Variable
Overall bit rate : 4 901 Kbps
Encoded date : UTC 2020-04-15 19:37:21
Writing application : mkvmerge v7.7.0 ('Six Voices') 32bit built on Feb 28 2015 23:23:00
Writing library : libebml v1.3.1 + libmatroska v1.4.2
_STATISTICS_WRITING_APP : mkvmerge v7.7.0 ('Six Voices') 32bit built on Feb 28 2015 23:23:00
_STATISTICS_WRITING_DATE_UTC : 2020-04-15 19:37:21
_STATISTICS_TAGS : BPS DURATION NUMBER_OF_FRAMES NUMBER_OF_BYTES
DURATION : 00:54:13.664000000
NUMBER_OF_FRAMES : 101677
NUMBER_OF_BYTES : 260293120

Video
ID : 1
Format : AVC
Format/Info : Advanced Video Codec
Format profile : Main@L3.1
Format settings, CABAC : Yes
Format settings, ReFrames : 3 frames
Codec ID : V_MPEG4/ISO/AVC
Duration : 54mn 13s
Bit rate mode : Variable
Bit rate : 3 523 Kbps
Nominal bit rate : 3 830 Kbps
Maximum bit rate : 5 745 Kbps
Width : 1 280 pixels
Height : 720 pixels
Display aspect ratio : 16:9
Frame rate mode : Constant
Frame rate : 23.976 fps
Color space : YUV
Chroma subsampling : 4:2:0
Bit depth : 8 bits
Scan type : Progressive
Bits/(Pixel*Frame) : 0.159
Stream size : 1.33 GiB (72%)
Writing library : x264 core 148 r2717 0d2410d
Encoding settings : cabac=1 / ref=3 / deblock=1:0:0 / analyse=0x1:0x111 / me=umh / subme=10 / psy=1 / psy_rd=1.00:0.00 / mixed_ref=1 / me_range=24 / chroma_me=1 / trellis=2 / 8x8dct=0 / cqm=0 / deadzone=21,11 / fast_pskip=1 / chroma_qp_offset=-2 / threads=6 / lookahead_threads=1 / sliced_threads=0 / nr=0 / decimate=1 / interlaced=0 / bluray_compat=0 / stitchable=1 / constrained_intra=0 / bframes=2 / b_pyramid=0 / b_adapt=2 / b_bias=0 / direct=3 / weightb=1 / open_gop=0 / weightp=2 / keyint=250 / keyint_min=23 / scenecut=0 / intra_refresh=0 / rc_lookahead=48 / rc=2pass / mbtree=1 / bitrate=3830 / ratetol=1.0 / qcomp=0.50 / qpmin=6 / qpmax=51 / qpstep=4 / cplxblur=20.0 / qblur=0.5 / vbv_maxrate=5745 / vbv_bufsize=7660 / nal_hrd=vbr / filler=0 / ip_ratio=1.40 / aq=1:1.00
Language : English
Default : Yes
Forced : No

Audio #1
ID : 2
Format : E-AC-3
Format/Info : Audio Coding 3
Format settings, Endianness : Big
Codec ID : A_EAC3
Duration : 54mn 13s
Bit rate mode : Constant
Bit rate : 640 Kbps
Channel(s) : 6 channels
Channel positions : Front: L C R, Side: L R, LFE
Sampling rate : 48.0 KHz
Compression mode : Lossy
Stream size : 248 MiB (13%)
Title : Russian
Language : Russian
Default : Yes
Forced : No

Audio #2
ID : 3
Format : E-AC-3
Format/Info : Audio Coding 3
Format settings, Endianness : Big
Codec ID : A_EAC3
Duration : 54mn 13s
Bit rate mode : Constant
Bit rate : 640 Kbps
Channel(s) : 6 channels
Channel positions : Front: L C R, Side: L R, LFE
Sampling rate : 48.0 KHz
Compression mode : Lossy
Stream size : 248 MiB (13%)
Title : English
Language : English
Default : No
Forced : No

Text #1
ID : 4
Format : UTF-8
Codec ID : S_TEXT/UTF8
Codec ID/Info : UTF-8 Plain Text
Title : Russian
Language : Russian
Default : No
Forced : No

Text #2
ID : 5
Format : UTF-8
Codec ID : S_TEXT/UTF8
Codec ID/Info : UTF-8 Plain Text
Title : English
Language : English
Default : No
Forced : No


Sovetnik
Аватара пользователя
 
Раздал: 32.13 ТБ
Скачал: 13.11 ГБ
Ратио: 2510.256
Сообщения: 1873
Зарегистрирован: 13 фев 2014, 05:19
  • Торрент
Автор: Sovetnik Хэш: e43dc572e3f9742f2ac499cf9bcf9afe5c3536c3
Добавлен: 16 апр 2020, 23:07 Приватный: Нет (DHT включён)
Статус: Проверен
Размер: 14.23 ГБ (15 277 031 040 байт)
Изменил:
---
Скачали: 890 (Раздающих: 0%)
Причина:
---
Здоровье: 100%
Сидеров: 167 Личеров: 97
Скорость раздачи: 0 байт/сек Скорость скачивания: 0 байт/сек
Последний сидер: 4 месяца 2 дня 6 часов 3 минуты 9 секунд назад Последний личер: 4 месяца 2 дня 6 часов 3 минуты 9 секунд назад
Скачать торрент
Скачать торрент
[ Размер 73.44 КБ / Просмотров 0 ]

Форум Статистика

Кто сейчас на конференции

Сейчас этот форум просматривают: нет зарегистрированных пользователей и гости: 2

  • Похожие торренты
    Ответы
    Просмотры
    Последнее сообщение

Настройки

Вернуться в Сериалы

cron
Ресурс не предоставляет электронные версии произведений, а занимается лишь коллекционированием и каталогизацией ссылок, присылаемых и публикуемых на форуме нашими читателями. Если вы являетесь правообладателем какого-либо представленного материала и не желаете чтобы ссылка на него находилась в нашем каталоге, свяжитесь с нами и мы незамедлительно удалим её. Файлы для обмена на трекере предоставлены пользователями сайта, и администрация не несёт ответственности за их содержание. Просьба не заливать файлы, защищенные авторскими правами, а также файлы нелегального содержания!
tracker_cron