Модераторы: K15, Младшие модераторы, Модераторы

Капитан Марвел / Captain Marvel (2019) BDRip 1080p | Дополнительные материалы | Sub

Сообщение Sovetnik » 24 авг 2020, 00:42

#777
Информация о фильме
Название: Капитан Марвел
Оригинальное название: Captain Marvel
Год выпуска: 2019
Жанр: фантастика, боевик, приключения
Режиссер: Анна Боден, Райан Флек
В ролях: Бри Ларсон, Сэмюэл Л. Джексон, Бен Мендельсон, Джуд Лоу, Аннетт Бенинг, Лашана Линч, Кларк Грегг, Рюн Темт, Джемма Чан, Альхенис Перес Сото, Джимон Хонсу, Ли Пейс, Чуку Моду, Мэттью Мехер

О фильме: После столкновения с враждующими инопланетными расами, пилот военно-воздушных сил Кэрол Дэнверс обретает суперсилу и становится неуязвимой. Героине предстоит совладать со своими новыми способностями, чтобы противостоять могущественному врагу.



Список материалов:
● Intro (01:51)
● Becoming a Superhero (06:40)
● Big Hero Moment (03:31)
● The Origin of Nick Fury (03:33)
● The Skrulls and the Kree (03:31)
● The Dream Team (02:44)
● Hiss-Sterical Cat-Titude (03:23)
● Gag Reel (02:02)

Deleted Scenes
● Who Do You Admire Above All Others? (01:51)
● Starforce Recruits (02:02)
● Heading to Torfa (01:18)
● What, No Smile? (01:15)
● Black Box (01:00)
● Rookie Mistake (01:19)

Digital Copy Exclusive
● Journey Into Visual Effects With Victoria Alonso (07:19)
● What Makes A Memory: Inside The Mind “Frack” (04:38)

● Источник #1: CAPTAIN_MARVEL_2019_BLUEBIRD от BLUEBIRD-HD.ORG
● Источник #2: Captain.Marvel.2019.Digital.Extras.1080p.AMZN.WEBRip.DDP5.1.x264-NTG
● Все материалы с русскими субтитрами кроме Digital Copy Exclusive
● Материалы Digital Copy Exclusive являются эксклюзивными для цифрового распространения и не издавались на Blu-Ray. Взяты с Amazon. Перевод для этих материалов отсутствует.

Страна: США
Продолжительность: 00:48:05
Перевод: Субтитры

Файл
Кодек: H264
Качество: BDRip 1080p
Видео: 1920x1080 (16:9), 23,976 fps, ~8000 kbps avg
Звук: 48 kHz, AC3, 6 ch, 640 kbps
Субтитры: Русские, английские

General
Unique ID : 190919886757146406926409770228403560169 (0x8FA1D52B122B0A939EC79C9FEEFE5EE9)
Complete name : The Dream Team.mkv
Format : Matroska
Format version : Version 4
File size : 155 MiB
Duration : 2 min 44 s
Overall bit rate : 7 926 kb/s
Movie name : Captain Marvel (2019) [Extras | BDRip 1080p] by AlcohoLiTTO
Encoded date : UTC 2020-05-01 18:23:34
Writing application : mkvmerge v8.3.0 ('Over the Horizon') 32bit
Writing library : libebml v1.3.1 + libmatroska v1.4.2
Cover : Yes
Attachments : Cover.jpg

Video
ID : 1
Format : AVC
Format/Info : Advanced Video Codec
Format profile : High@L4.1
Format settings : CABAC / 5 Ref Frames
Format settings, CABAC : Yes
Format settings, Reference : 5 frames
Codec ID : V_MPEG4/ISO/AVC
Duration : 2 min 44 s
Bit rate : 7 195 kb/s
Width : 1 920 pixels
Height : 1 080 pixels
Display aspect ratio : 16:9
Frame rate mode : Constant
Frame rate : 23.976 (24000/1001) FPS
Color space : YUV
Chroma subsampling : 4:2:0
Bit depth : 8 bits
Scan type : Progressive
Bits/(Pixel*Frame) : 0.145
Stream size : 141 MiB (91%)
Writing library : x264 core 157 r2958 57baac4
Encoding settings : cabac=1 / ref=5 / deblock=1:-3:-3 / analyse=0x3:0x113 / me=umh / subme=11 / psy=1 / psy_rd=1.05:0.00 / mixed_ref=1 / me_range=32 / chroma_me=1 / trellis=2 / 8x8dct=1 / cqm=0 / deadzone=21,11 / fast_pskip=0 / chroma_qp_offset=-2 / threads=8 / lookahead_threads=1 / sliced_threads=0 / nr=0 / decimate=0 / interlaced=0 / bluray_compat=0 / constrained_intra=0 / bframes=8 / b_pyramid=2 / b_adapt=2 / b_bias=0 / direct=3 / weightb=1 / open_gop=1 / weightp=2 / keyint=240 / keyint_min=24 / scenecut=40 / intra_refresh=0 / rc_lookahead=60 / rc=crf / mbtree=0 / crf=21.0 / qcomp=0.80 / qpmin=0 / qpmax=69 / qpstep=4 / vbv_maxrate=50000 / vbv_bufsize=62500 / crf_max=21.0 / nal_hrd=none / filler=0 / ip_ratio=1.30 / pb_ratio=1.20 / aq=2:0.50
Language : English
Default : Yes
Forced : No

Audio
ID : 2
Format : AC-3
Format/Info : Audio Coding 3
Commercial name : Dolby Digital
Codec ID : A_AC3
Duration : 2 min 44 s
Bit rate mode : Constant
Bit rate : 640 kb/s
Channel(s) : 6 channels
Channel layout : L R C LFE Ls Rs
Sampling rate : 48.0 kHz
Frame rate : 31.250 FPS (1536 SPF)
Compression mode : Lossy
Stream size : 12.5 MiB (8%)
Language : English
Service kind : Complete Main
Default : Yes
Forced : No

Text #1
ID : 3
Format : UTF-8
Codec ID : S_TEXT/UTF8
Codec ID/Info : UTF-8 Plain Text
Duration : 2 min 33 s
Bit rate : 145 b/s
Count of elements : 53
Stream size : 2.73 KiB (0%)
Language : Russian
Default : Yes
Forced : No

Text #2
ID : 4
Format : UTF-8
Codec ID : S_TEXT/UTF8
Codec ID/Info : UTF-8 Plain Text
Duration : 2 min 33 s
Bit rate : 119 b/s
Count of elements : 52
Stream size : 2.25 KiB (0%)
Language : English
Default : No
Forced : No

Sovetnik
Аватара пользователя
 
Раздал: 32.13 ТБ
Скачал: 13.11 ГБ
Ратио: 2510.256
Сообщения: 1873
Зарегистрирован: 13 фев 2014, 05:19
  • Торрент
Автор: Sovetnik Хэш: 979d07c2c6b2587d3fd01d98c66c40bbb1fb5c47
Добавлен: 24 авг 2020, 00:42 Приватный: Нет (DHT включён)
Статус: Проверен
Размер: 2.29 ГБ (2 459 550 366 байт)
Изменил:
---
Скачали: 336 (Раздающих: 0%)
Причина:
---
Здоровье: 100%
Сидеров: 3 Личеров: 0
Скорость раздачи: 0 байт/сек Скорость скачивания: 0 байт/сек
Последний сидер: 1 месяц 6 дней 11 часов 50 минут 57 секунд назад Последний личер: Нет
Скачать торрент
Скачать торрент
[ Размер 4.75 КБ / Просмотров 0 ]

Форум Статистика

Кто сейчас на конференции

Сейчас этот форум просматривают: нет зарегистрированных пользователей и гости: 1

  • Похожие торренты
    Ответы
    Просмотры
    Последнее сообщение

Настройки

Вернуться в Доп. материалы к играм

cron
Ресурс не предоставляет электронные версии произведений, а занимается лишь коллекционированием и каталогизацией ссылок, присылаемых и публикуемых на форуме нашими читателями. Если вы являетесь правообладателем какого-либо представленного материала и не желаете чтобы ссылка на него находилась в нашем каталоге, свяжитесь с нами и мы незамедлительно удалим её. Файлы для обмена на трекере предоставлены пользователями сайта, и администрация не несёт ответственности за их содержание. Просьба не заливать файлы, защищенные авторскими правами, а также файлы нелегального содержания!
tracker_cron