Модераторы: K15, Младшие модераторы, Модераторы

Пандемия: Коронавирус / Pandemic: Covid-19 (2020) Документальный, WEBRip 720p | LakeFilms

Сообщение Sovetnik » 03 апр 2020, 12:26

Пандемия: Коронавирус / Pandemic: Covid-19


#777

Название: Пандемия: Коронавирус
Оригинальное название: Pandemic: Covid-19
Год выпуска: 2020
Выпущено: США
Продолжительность: 00:43:54
Перевод: Любительский двухголосый закадровый (LakeFilms)
Жанр: Документальный

В ролях: Эрик Томпсон

О фильме:
Пандемия: Коронавирус — часовой спецвыпуск от Discovery, в котором подробно расскажут о ​​пандемии COVID-19. Эксперты прольют свет на появление и пути передачи вируса, который изначально ставил в тупик врачей и ученых, столкнувшихся с первыми зараженными. Особое внимание будет также уделено тому, как в течение нескольких недель COVID-19 распространился по всему Китаю и за его пределами, и драматической истории эпидемии в США, начавшейся с Сиэтла. Эксперты объяснят, почему коронавирус уникален, почему мир был так не подготовлен к нему и какие меры нужно было предпринять, чтобы максимально сдержать его распространение.

Присутствует реклама!

Техданные
Качество: WEBRip (720p)
Видео: MPEG-4 AVC, ~ 2 764 kb/s, 1280x720, 25.000 FPS
Аудио: AC3, 2 ch, 384 Кбит/с




General
Unique ID : 218079165453276163352020604654402826928 (0xA41084FDE8B60C4AB703CF7F37C672B0)
Complete name : E:Pandemic.COVID.19.WEBRip.720p.LakeFilms.mkv
Format : Matroska
Format version : Version 4 / Version 2
File size : 1 009 MiB
Duration : 43 min 54 s
Overall bit rate mode : Constant
Overall bit rate : 3 212 kb/s
Encoded date : UTC 2020-04-01 21:55:17
Writing application : Pegasys Standard Library
Writing library : Pegasys Standard Library

Video
ID : 2
Format : AVC
Format/Info : Advanced Video Codec
Format profile : High@L3.1
Format settings : CABAC / 5 Ref Frames
Format settings, CABAC : Yes
Format settings, RefFrames : 5 frames
Codec ID : V_MPEG4/ISO/AVC
Duration : 43 min 54 s
Bit rate mode : Constant
Bit rate : 2 764 kb/s
Nominal bit rate : 3 700 kb/s / 3 700 kb/s
Width : 1 280 pixels
Height : 720 pixels
Display aspect ratio : 16:9
Frame rate mode : Constant
Frame rate : 25.000 FPS
Standard : Component
Color space : YUV
Chroma subsampling : 4:2:0
Bit depth : 8 bits
Scan type : Progressive
Bits/(Pixel*Frame) : 0.120
Stream size : 868 MiB (86%)
Writing library : x264 core 136
Encoding settings : cabac=1 / ref=5 / deblock=1:0:0 / analyse=0x3:0x113 / me=hex / subme=7 / psy=1 / psy_rd=1.00:0.00 / mixed_ref=1 / me_range=16 / chroma_me=1 / trellis=1 / 8x8dct=1 / cqm=2 / deadzone=21,11 / fast_pskip=1 / chroma_qp_offset=-2 / threads=24 / lookahead_threads=4 / sliced_threads=0 / slices=1 / nr=0 / decimate=1 / interlaced=0 / bluray_compat=0 / constrained_intra=0 / bframes=3 / b_pyramid=0 / b_adapt=1 / b_bias=0 / direct=1 / weightb=1 / open_gop=0 / weightp=2 / keyint=250 / keyint_min=25 / scenecut=40 / intra_refresh=0 / rc_lookahead=40 / rc=cbr / mbtree=1 / bitrate=3700 / ratetol=1.0 / qcomp=0.60 / qpmin=3 / qpmax=69 / qpstep=4 / vbv_maxrate=3700 / vbv_bufsize=3700 / nal_hrd=cbr / ip_ratio=1.40 / aq=1:1.00
Default : Yes
Forced : No
Color range : Limited
Color primaries : BT.709
Transfer characteristics : BT.709
Matrix coefficients : BT.709

Audio
ID : 1
Format : AC-3
Format/Info : Audio Coding 3
Codec ID : A_AC3
Duration : 43 min 54 s
Bit rate mode : Constant
Bit rate : 384 kb/s
Channel(s) : 2 channels
Channel positions : Front: L R
Sampling rate : 48.0 kHz
Frame rate : 31.250 FPS (1536 SPF)
Bit depth : 16 bits
Compression mode : Lossy
Stream size : 121 MiB (12%)
Service kind : Complete Main
Default : Yes
Forced : No
Sovetnik
Аватара пользователя
 
Раздал: 32.13 ТБ
Скачал: 13.11 ГБ
Ратио: 2510.256
Сообщения: 1873
Зарегистрирован: 13 фев 2014, 05:19
  • Торрент
Автор: Sovetnik Хэш: 077e52dbc4ad7c02c3f68c07fc0911d5c662741a
Добавлен: 03 апр 2020, 12:26 Приватный: Нет (DHT включён)
Статус: Проверен
Размер: 1008.79 МБ (1 057 796 319 байт)
Изменил:
---
Скачали: 6573 (Раздающих: 0%)
Причина:
---
Здоровье: 100%
Сидеров: 1423 Личеров: 129
Скорость раздачи: 0 байт/сек Скорость скачивания: 0 байт/сек
Последний сидер: 1 месяц 15 дней 5 часов 53 минуты 49 секунд назад Последний личер: 1 месяц 15 дней 5 часов 53 минуты 49 секунд назад
Скачать торрент
Скачать торрент
[ Размер 21.42 КБ / Просмотров 0 ]

Форум Статистика

Кто сейчас на конференции

Сейчас этот форум просматривают: нет зарегистрированных пользователей и гости: 3

  • Похожие торренты
    Ответы
    Просмотры
    Последнее сообщение

Настройки

Вернуться в TV / Документалки

Ресурс не предоставляет электронные версии произведений, а занимается лишь коллекционированием и каталогизацией ссылок, присылаемых и публикуемых на форуме нашими читателями. Если вы являетесь правообладателем какого-либо представленного материала и не желаете чтобы ссылка на него находилась в нашем каталоге, свяжитесь с нами и мы незамедлительно удалим её. Файлы для обмена на трекере предоставлены пользователями сайта, и администрация не несёт ответственности за их содержание. Просьба не заливать файлы, защищенные авторскими правами, а также файлы нелегального содержания!
tracker_cron