Модераторы: K15, Младшие модераторы, Модераторы

Райская бухта / Paradise Cove (Мартин Гиги) [2021, триллер, BDRip 720p / iTunes]

Сообщение Sovetnik » 01 июн 2022, 19:51

#777

Райская бухта / Paradise Cove


Информация о фильме
Название: Райская бухта
Оригинальное название: Paradise Cove
Год выхода: 2021
Выпущено: США / Sunset Pictures, Thunder Studios
Продолжительность: 01:43:53
Озвучивание: Дублированное | iTunes
Жанр: триллер

Режиссер: Мартин Гиги

В ролях: Тодд Гриннелл, Мена Сувари, Кристин Бауэр, Эдди Гоинс, Криста Аллен, Орасио Галавиз, Эдди Ривера, Рубен Гарфиас, Келси Коллинз, Карл Т. Райт....

О фильме:
Супруги Нокс и Трейси отправляется в Малибу, чтобы продать пляжный дом, который достался Ноксу в наследство от матери. По приезду они узнают не очень хорошую новость. Некоторое время назад в доме произошел пожар, но основная часть осталась цела. Осмотревшись, супруги решают сделать ремонт и придать дому презентабельный вид. Они очень надеются продать его за хорошую сумму, ведь самое дорогое в нём – это вид из окна и собственный частный пляж...



Файл
Формат: MKV
Качество: BDRip 720p
Видео: MPEG-4 AVC, 5133 Kb/s, 1280x534
Аудио: Russian: AC3, 384 Kb/s (6 ch), English: AC3, 640 Kb/s (6 ch)
Субтитры: Нет
Дополнительно: Сохранены оригинальные чаптеры.

Complete name : Rayskaya.buhta.2021.BDRip.720p.ELEKTRI4KA.UNIONGANG.mkv
Format : Matroska
Format version : Version 4
File size : 4.47 GiB
Duration : 1 h 43 min
Overall bit rate : 6 151 kb/s
Movie name : Rayskaya.buhta.2021.BDRip.720p.ELEKTRI4KA.UNIONGANG.
Encoded date : UTC 2022-05-19 16:58:41
Writing application : mkvmerge v8.3.0 ('Over the Horizon') 32bit
Writing library : libebml v1.3.1 + libmatroska v1.4.2

Video
ID : 1
Format : AVC
Format/Info : Advanced Video Codec
Format profile : High@L4.1
Format settings : CABAC / 12 Ref Frames
Format settings, CABAC : Yes
Format settings, Reference frames : 12 frames
Codec ID : V_MPEG4/ISO/AVC
Duration : 1 h 43 min
Bit rate : 5 133 kb/s
Width : 1 280 pixels
Height : 534 pixels
Display aspect ratio : 2.40:1
Frame rate mode : Constant
Frame rate : 23.976 (24000/1001) FPS
Color space : YUV
Chroma subsampling : 4:2:0
Bit depth : 8 bits
Scan type : Progressive
Bits/(Pixel*Frame) : 0.313
Stream size : 3.72 GiB (83%)
Writing library : x264 core 157 r2958 57baac4
Encoding settings : cabac=1 / ref=12 / deblock=1:-3:-3 / analyse=0x3:0x133 / me=umh / subme=10 / psy=1 / psy_rd=1.00:0.15 / mixed_ref=1 / me_range=32 / chroma_me=1 / trellis=2 / 8x8dct=1 / cqm=0 / deadzone=21,11 / fast_pskip=0 / chroma_qp_offset=-3 / threads=17 / lookahead_threads=2 / sliced_threads=0 / nr=1 / decimate=0 / interlaced=0 / bluray_compat=0 / constrained_intra=0 / bframes=8 / b_pyramid=2 / b_adapt=2 / b_bias=0 / direct=3 / weightb=1 / open_gop=0 / weightp=2 / keyint=240 / keyint_min=24 / scenecut=40 / intra_refresh=0 / rc=2pass / mbtree=0 / bitrate=5133 / ratetol=1.0 / qcomp=0.60 / qpmin=0 / qpmax=69 / qpstep=4 / cplxblur=20.0 / qblur=0.5 / ip_ratio=1.40 / pb_ratio=1.30 / aq=1:1.00
Default : Yes
Forced : No
Color range : Limited
Color primaries : BT.709
Transfer characteristics : BT.709
Matrix coefficients : BT.709

Audio #1
ID : 2
Format : AC-3
Format/Info : Audio Coding 3
Commercial name : Dolby Digital
Codec ID : A_AC3
Duration : 1 h 43 min
Bit rate mode : Constant
Bit rate : 384 kb/s
Channel(s) : 6 channels
Channel layout : L R C LFE Ls Rs
Sampling rate : 48.0 kHz
Frame rate : 31.250 FPS (1536 SPF)
Compression mode : Lossy
Stream size : 286 MiB (6%)
Title : DUB (iTunes)
Language : Russian
Service kind : Complete Main
Default : Yes
Forced : Yes

Audio #2
ID : 3
Format : AC-3
Format/Info : Audio Coding 3
Commercial name : Dolby Digital
Codec ID : A_AC3
Duration : 1 h 43 min
Bit rate mode : Constant
Bit rate : 640 kb/s
Channel(s) : 6 channels
Channel layout : L R C LFE Ls Rs
Sampling rate : 48.0 kHz
Frame rate : 31.250 FPS (1536 SPF)
Compression mode : Lossy
Stream size : 476 MiB (10%)
Title : Original
Language : English
Service kind : Complete Main
Default : No
Forced : No

Menu
00:00:00.000 : :Chapter 1
00:09:56.929 : :Chapter 2
00:17:36.263 : :Chapter 3
00:27:49.292 : :Chapter 4
00:36:38.362 : :Chapter 5
00:44:50.229 : :Chapter 6
00:55:55.643 : :Chapter 7
01:04:40.376 : :Chapter 8
01:11:46.176 : :Chapter 9
01:20:56.852 : :Chapter 10
01:31:18.473 : :Chapter 11
01:39:42.977 : :Chapter 12
01:43:53.227 : :Chapter 13


Релиз группы: &
Sovetnik
Аватара пользователя
 
Раздал: 32.14 ТБ
Скачал: 13.23 ГБ
Ратио: 2488.285
Сообщения: 1913
Зарегистрирован: 13 фев 2014, 05:19
  • Торрент
Автор: Sovetnik Хэш: ---
Добавлен: 01 июн 2022, 19:51 Приватный: Нет (DHT включён)
Статус: Проверен
Размер: 4.47 ГБ (4 796 061 334 байт)
Изменил:
---
Скачали: 82 (Раздающих: 0%)
Причина:
---
Здоровье: 100%
Сидеров: 16 Личеров: 3
Скорость раздачи: 0 байт/сек Скорость скачивания: 0 байт/сек
Последний сидер: 11 дней 23 часа 23 минуты 28 секунд назад Последний личер: 11 дней 23 часа 23 минуты 28 секунд назад
Для скачивания торрента необходимо зарегистрироваться или войти на трекер.

Форум Статистика

Сейчас этот форум просматривают: нет зарегистрированных пользователей и гости: 6

Настройки

Вернуться в Фильмы / HDTV / HD / Blu-Ray

cron
Ресурс не предоставляет электронные версии произведений, а занимается лишь коллекционированием и каталогизацией ссылок, присылаемых и публикуемых на форуме нашими читателями. Если вы являетесь правообладателем какого-либо представленного материала и не желаете чтобы ссылка на него находилась в нашем каталоге, свяжитесь с нами и мы незамедлительно удалим её. Файлы для обмена на трекере предоставлены пользователями сайта, и администрация не несёт ответственности за их содержание. Просьба не заливать файлы, защищенные авторскими правами, а также файлы нелегального содержания!
tracker_cron