Модераторы: K15, Младшие модераторы, Модераторы

Невидимый враг. Боевые пловцы / The Silent Enemy (Уильям Фэйрчайлд) [1958, боевик, военный, биография, история, BDRip 720p / P1]

Сообщение Sovetnik » 01 июн 2022, 19:40

#777

Невидимый враг. Боевые пловцы / The Silent Enemy


Название: Невидимый враг. Боевые пловцы
Оригинальное название: The Silent Enemy
Год выпуска: 1958
Страна: Великобритания
Продолжительность: 01:51:59
Перевод: профессиональный одноголосый
Жанр: боевик, военный, биография, история

Режиссер: Уильям Фэйрчайлд

Актеры: Лоуренс Харви, Доун Аддамс, Майкл Крэйг, Джон Клементс, Сидни Джеймс, Алек МакКоуэн, Найджел Сток, Йен Уитэйкер, Арнольдо Фоа, Джанна Мария Канале ...

Описание:
Фильм снят о морских событиях, описанных Маршаллом Пью в его биографии "Командир Крэбб". В 1941 году на Средиземном море итальянцы применили боевых пловцов для проведения диверсий против кораблей англичан. Для борьбы с ними в Гибралтар прибывает специалист по минному делу, но только два британских боевых пловца способны сравняться с итальянцами...



Качество: BDRip 720p
Формат: MKV
Видео: MPEG-4 AVC, 988x720, 8987 kbps, 24 fps
Аудио 1: AC3, 2 ch, 192 kbps, 48.0 kHz | русский (VO)
Аудио 2: DTS, 2 ch, 1509 kbps, 48.0 kHz | английский
Субтитры: английские SDH
Субтитры: английские (SRT)

Код: Выделить всё
Общее
Уникальный идентификатор                 : 218907973675286036199768238499773501064 (0xA4B024646099290F665E1FC7A5034E88)
Полное имя                               : D:VideoНевидимый враг. Боевые пловцы.1958.BDRip 720p msltel.mkv
Формат                                   : Matroska
Версия формата                           : Version 4
Размер файла                             : 8,36 Гбайт
Продолжительность                        : 1 ч. 51 м.
Общий поток                              : 10,7 Мбит/сек
Название фильма                          : Невидимый враг. Боевые пловцы.1958.BDRip 720p msltel
Дата кодирования                         : UTC 2022-05-19 04:39:17
Программа кодирования                    : mkvmerge v44.0.0 ('Domino') 64-bit
Библиотека кодирования                   : libebml v1.3.10 + libmatroska v1.5.2

Видео
Идентификатор                            : 1
Формат                                   : AVC
Формат/Информация                        : Advanced Video Codec
Профиль формата                          : High@L4.1
Настройки формата                        : CABAC / 11 Ref Frames
Параметр CABAC формата                   : Да
Параметр RefFrames формата               : 11 кадров
Идентификатор кодека                     : V_MPEG4/ISO/AVC
Продолжительность                        : 1 ч. 51 м.
Битрейт                                  : 8 987 Кбит/сек
Ширина                                   : 988 пикселей
Высота                                   : 720 пикселей
Соотношение сторон                       : 1,372
Режим частоты кадров                     : Постоянный
Частота кадров                           : 24,000 кадра/сек
Цветовое пространство                    : YUV
Субдискретизация насыщенности            : 4:2:0
Битовая глубина                          : 8 бит
Тип развёртки                            : Прогрессивная
Бит/(Пиксели*Кадры)                      : 0.526
Размер потока                            : 7,03 Гбайт (84%)
Библиотека кодирования                   : x264 core 164 r3085 0bb85e8
Настройки программы                      : cabac=1 / ref=11 / deblock=1:-3:-3 / analyse=0x3:0x113 / me=umh / subme=11 / psy=1 / psy_rd=1.00:0.00 / mixed_ref=1 / me_range=32 / chroma_me=1 / trellis=2 / 8x8dct=1 / cqm=0 / deadzone=21,11 / fast_pskip=0 / chroma_qp_offset=-2 / threads=12 / lookahead_threads=2 / sliced_threads=0 / nr=0 / decimate=0 / interlaced=0 / bluray_compat=0 / constrained_intra=0 / bframes=9 / b_pyramid=2 / b_adapt=2 / b_bias=0 / direct=1 / weightb=1 / open_gop=0 / weightp=2 / keyint=240 / keyint_min=24 / scenecut=40 / intra_refresh=0 / rc_lookahead=40 / rc=crf / mbtree=0 / crf=16.8 / qcomp=0.60 / qpmin=0 / qpmax=69 / qpstep=4 / vbv_maxrate=50000 / vbv_bufsize=62500 / crf_max=0.0 / nal_hrd=none / filler=0 / ip_ratio=1.40 / pb_ratio=1.30 / aq=3:1.00
Язык                                     : English
Default                                  : Да
Forced                                   : Нет

Аудио #1
Идентификатор                            : 2
Формат                                   : AC-3
Формат/Информация                        : Audio Coding 3
Коммерческое название                    : Dolby Digital
Идентификатор кодека                     : A_AC3
Продолжительность                        : 1 ч. 51 м.
Вид битрейта                             : Постоянный
Битрейт                                  : 192 Кбит/сек
Каналы                                   : 2 канала
Channel layout                           : L R
Частота                                  : 48,0 КГц
Частота кадров                           : 31,250 кадров/сек (1536 SPF)
Метод сжатия                             : С потерями
Размер потока                            : 154 Мбайт (2%)
Заголовок                                : VO
Язык                                     : Russian
Service kind                             : Complete Main
Default                                  : Да
Forced                                   : Нет

Аудио #2
Идентификатор                            : 3
Формат                                   : DTS
Формат/Информация                        : Digital Theater Systems
Идентификатор кодека                     : A_DTS
Продолжительность                        : 1 ч. 51 м.
Вид битрейта                             : Постоянный
Битрейт                                  : 1 509 Кбит/сек
Каналы                                   : 2 канала
Channel layout                           : L R
Частота                                  : 48,0 КГц
Частота кадров                           : 93,750 кадра/сек (512 SPF)
Битовая глубина                          : 24 бит
Метод сжатия                             : С потерями
Размер потока                            : 1,18 Гбайт (14%)
Заголовок                                : original
Язык                                     : English
Default                                  : Нет
Forced                                   : Нет

Текст
Идентификатор                            : 4
Формат                                   : UTF-8
Идентификатор кодека                     : S_TEXT/UTF8
Идентификатор кодека/Информация          : UTF-8 Plain Text
Продолжительность                        : 1 ч. 50 м.
Битрейт                                  : 67 бит/сек
Count of elements                        : 1509
Размер потока                            : 54,8 Кбайт (0%)
Заголовок                                : английские SDH
Язык                                     : English
Default                                  : Нет
Forced                                   : Нет

Меню
00:00:00.000                             : :Глава 01
00:09:32.667                             : :Глава 02
00:19:26.250                             : :Глава 03
00:27:05.208                             : :Глава 04
00:37:34.542                             : :Глава 05
00:45:54.375                             : :Глава 06
00:53:15.875                             : :Глава 07
01:00:36.000                             : :Глава 08
01:08:49.708                             : :Глава 09
01:16:23.583                             : :Глава 10
01:29:46.833                             : :Глава 11
01:41:14.000                             : :Глава 12
Sovetnik
Аватара пользователя
 
Раздал: 32.14 ТБ
Скачал: 13.23 ГБ
Ратио: 2488.285
Сообщения: 1913
Зарегистрирован: 13 фев 2014, 05:19
  • Торрент
Автор: Sovetnik Хэш: ---
Добавлен: 01 июн 2022, 19:40 Приватный: Нет (DHT включён)
Статус: Проверен
Размер: 8.36 ГБ (8 980 082 151 байт)
Изменил:
---
Скачали: 7 (Раздающих: 0%)
Причина:
---
Здоровье: 100%
Сидеров: 10 Личеров: 0
Скорость раздачи: 0 байт/сек Скорость скачивания: 0 байт/сек
Последний сидер: 27 дней 23 часа 53 минуты 19 секунд назад Последний личер: Нет
Для скачивания торрента необходимо зарегистрироваться или войти на трекер.

Форум Статистика

Сейчас этот форум просматривают: нет зарегистрированных пользователей и гости: 3

Настройки

Вернуться в Фильмы / HDTV / HD / Blu-Ray

cron
Ресурс не предоставляет электронные версии произведений, а занимается лишь коллекционированием и каталогизацией ссылок, присылаемых и публикуемых на форуме нашими читателями. Если вы являетесь правообладателем какого-либо представленного материала и не желаете чтобы ссылка на него находилась в нашем каталоге, свяжитесь с нами и мы незамедлительно удалим её. Файлы для обмена на трекере предоставлены пользователями сайта, и администрация не несёт ответственности за их содержание. Просьба не заливать файлы, защищенные авторскими правами, а также файлы нелегального содержания!