Модераторы: K15, Младшие модераторы, Модераторы

Чего мы стоим в жизни / The Sum of Us (Кевин Даулинг и др.) [1994, драма, комедия, BDRip 720p / P2, A]

Сообщение Sovetnik » 01 июн 2022, 19:40

#777

Чего мы стоим в жизни / The Sum of Us


Название: Чего мы стоим в жизни
Оригинальное название: The Sum of Us
Страна: Австралия
Год выпуска: 1994
Продолжительность: 01:39:45
Перевод: профессиональный двухголосый (студия Эльром), авторский (Леонид Володарский)
Жанр: драма, комедия

Режиссер: Кевин Даулинг, Джефф Бертон

Актеры: Расселл Кроу, Джек Томпсон, Джон Полсон, Дебора Кеннеди, Джосс «Мо», Митч Мэтьюз, Джули Херберт, Дес Джеймс, Мик Кэмпбелл ....

Описание:
Экранизация одноимённой пьесы Дэвида Стивенса. Овдовевший Гарри Митчелл и его сын Джефф живут в скромном домике в небольшом австралийском городке. Джефф и Гарри одиноки, но у них разный подход к поиску партнёра: Гарри ищет жену через агентство, а Джефф знакомится с парнем в местном гей-баре...



Качество: BDRip 720p
Формат: MKV
Видео: MPEG-4 AVC, 1280x694, 5950 kbps, 23.976 fps
Аудио 1: AC3, 2 ch, 192 kbps, 48.0 kHz | русский (DVO студия Эльром)
Аудио 2: AC3, 2 ch, 192 kbps, 48.0 kHz | русский (Леонид Володарский)
Аудио 3: DTS, 2 ch, 1509 kbps, 48.0 kHz | английский
Субтитры: английские SDH
Субтитры: английские (SRT)

Код: Выделить всё
Общее
Уникальный идентификатор                 : 144555088758712110915544920004986637505 (0x6CC04C22C290C4D466D6EA732B678CC1)
Полное имя                               : D:VideoЧего мы стоим в жизни.1994.BDRip 720p msltel.mkv
Формат                                   : Matroska
Версия формата                           : Version 4
Размер файла                             : 5,47 Гбайт
Продолжительность                        : 1 ч. 39 м.
Общий поток                              : 7 846 Кбит/сек
Название фильма                          : Чего мы стоим в жизни.1994.BDRip 720p msltel
Дата кодирования                         : UTC 2022-05-19 03:57:58
Программа кодирования                    : mkvmerge v44.0.0 ('Domino') 64-bit
Библиотека кодирования                   : libebml v1.3.10 + libmatroska v1.5.2

Видео
Идентификатор                            : 1
Формат                                   : AVC
Формат/Информация                        : Advanced Video Codec
Профиль формата                          : High@L4.1
Настройки формата                        : CABAC / 9 Ref Frames
Параметр CABAC формата                   : Да
Параметр RefFrames формата               : 9 кадров
Идентификатор кодека                     : V_MPEG4/ISO/AVC
Продолжительность                        : 1 ч. 39 м.
Битрейт                                  : 5 950 Кбит/сек
Ширина                                   : 1 280 пикселей
Высота                                   : 694 пикселя
Соотношение сторон                       : 1,85:1
Режим частоты кадров                     : Постоянный
Частота кадров                           : 23,976 (24000/1001) кадра/сек
Цветовое пространство                    : YUV
Субдискретизация насыщенности            : 4:2:0
Битовая глубина                          : 8 бит
Тип развёртки                            : Прогрессивная
Бит/(Пиксели*Кадры)                      : 0.279
Размер потока                            : 4,15 Гбайт (76%)
Библиотека кодирования                   : x264 core 164 r3085 0bb85e8
Настройки программы                      : cabac=1 / ref=9 / deblock=1:-3:-3 / analyse=0x3:0x113 / me=umh / subme=11 / psy=1 / psy_rd=1.00:0.00 / mixed_ref=1 / me_range=32 / chroma_me=1 / trellis=2 / 8x8dct=1 / cqm=0 / deadzone=21,11 / fast_pskip=0 / chroma_qp_offset=-2 / threads=12 / lookahead_threads=3 / sliced_threads=0 / nr=0 / decimate=0 / interlaced=0 / bluray_compat=0 / constrained_intra=0 / bframes=11 / b_pyramid=2 / b_adapt=2 / b_bias=0 / direct=1 / weightb=1 / open_gop=0 / weightp=2 / keyint=240 / keyint_min=24 / scenecut=40 / intra_refresh=0 / rc_lookahead=40 / rc=crf / mbtree=0 / crf=18.0 / qcomp=0.60 / qpmin=0 / qpmax=69 / qpstep=4 / vbv_maxrate=50000 / vbv_bufsize=62500 / crf_max=0.0 / nal_hrd=none / filler=0 / ip_ratio=1.40 / pb_ratio=1.30 / aq=3:1.00
Язык                                     : English
Default                                  : Да
Forced                                   : Нет

Аудио #1
Идентификатор                            : 2
Формат                                   : AC-3
Формат/Информация                        : Audio Coding 3
Коммерческое название                    : Dolby Digital
Идентификатор кодека                     : A_AC3
Продолжительность                        : 1 ч. 39 м.
Вид битрейта                             : Постоянный
Битрейт                                  : 192 Кбит/сек
Каналы                                   : 2 канала
Channel layout                           : L R
Частота                                  : 48,0 КГц
Частота кадров                           : 31,250 кадров/сек (1536 SPF)
Метод сжатия                             : С потерями
Размер потока                            : 137 Мбайт (2%)
Заголовок                                : DVO Эльром
Язык                                     : Russian
Service kind                             : Complete Main
Default                                  : Да
Forced                                   : Нет

Аудио #2
Идентификатор                            : 3
Формат                                   : AC-3
Формат/Информация                        : Audio Coding 3
Коммерческое название                    : Dolby Digital
Идентификатор кодека                     : A_AC3
Продолжительность                        : 1 ч. 39 м.
Вид битрейта                             : Постоянный
Битрейт                                  : 192 Кбит/сек
Каналы                                   : 2 канала
Channel layout                           : L R
Частота                                  : 48,0 КГц
Частота кадров                           : 31,250 кадров/сек (1536 SPF)
Метод сжатия                             : С потерями
Размер потока                            : 137 Мбайт (2%)
Заголовок                                : Леонид Володарский
Язык                                     : Russian
Service kind                             : Complete Main
Default                                  : Нет
Forced                                   : Нет

Аудио #3
Идентификатор                            : 4
Формат                                   : DTS
Формат/Информация                        : Digital Theater Systems
Идентификатор кодека                     : A_DTS
Продолжительность                        : 1 ч. 39 м.
Вид битрейта                             : Постоянный
Битрейт                                  : 1 509 Кбит/сек
Каналы                                   : 2 канала
Channel layout                           : L R
Частота                                  : 48,0 КГц
Частота кадров                           : 93,750 кадра/сек (512 SPF)
Битовая глубина                          : 24 бит
Метод сжатия                             : С потерями
Размер потока                            : 1,05 Гбайт (19%)
Заголовок                                : original
Язык                                     : English
Default                                  : Нет
Forced                                   : Нет

Текст
Идентификатор                            : 5
Формат                                   : UTF-8
Идентификатор кодека                     : S_TEXT/UTF8
Идентификатор кодека/Информация          : UTF-8 Plain Text
Продолжительность                        : 1 ч. 39 м.
Битрейт                                  : 69 бит/сек
Count of elements                        : 1720
Размер потока                            : 51,0 Кбайт (0%)
Заголовок                                : английские SDH
Язык                                     : English
Default                                  : Нет
Forced                                   : Нет

Меню
00:00:00.000                             : en:Chapter 01
00:00:10.927                             : en:Chapter 02
00:11:26.477                             : en:Chapter 03
00:22:08.035                             : en:Chapter 04
00:36:19.385                             : en:Chapter 05
00:46:03.427                             : en:Chapter 06
00:57:45.545                             : en:Chapter 07
01:12:07.740                             : en:Chapter 08
01:26:23.553                             : en:Chapter 09
Sovetnik
Аватара пользователя
 
Раздал: 32.14 ТБ
Скачал: 13.23 ГБ
Ратио: 2488.285
Сообщения: 1913
Зарегистрирован: 13 фев 2014, 05:19
  • Торрент
Автор: Sovetnik Хэш: ---
Добавлен: 01 июн 2022, 19:40 Приватный: Нет (DHT включён)
Статус: Проверен
Размер: 5.47 ГБ (5 870 437 037 байт)
Изменил:
---
Скачали: 4 (Раздающих: 0%)
Причина:
---
Здоровье: 100%
Сидеров: 4 Личеров: 0
Скорость раздачи: 0 байт/сек Скорость скачивания: 0 байт/сек
Последний сидер: 1 месяц 5 дней 2 часа 53 минуты 48 секунд назад Последний личер: Нет
Для скачивания торрента необходимо зарегистрироваться или войти на трекер.

Форум Статистика

Сейчас этот форум просматривают: нет зарегистрированных пользователей и гости: 4

Настройки

Вернуться в Фильмы / HDTV / HD / Blu-Ray

cron
Ресурс не предоставляет электронные версии произведений, а занимается лишь коллекционированием и каталогизацией ссылок, присылаемых и публикуемых на форуме нашими читателями. Если вы являетесь правообладателем какого-либо представленного материала и не желаете чтобы ссылка на него находилась в нашем каталоге, свяжитесь с нами и мы незамедлительно удалим её. Файлы для обмена на трекере предоставлены пользователями сайта, и администрация не несёт ответственности за их содержание. Просьба не заливать файлы, защищенные авторскими правами, а также файлы нелегального содержания!