Модераторы: K15, Младшие модераторы, Модераторы

Падение Луны / Moonfall (2022) WEB-DL-HEVC 2160p | 4K | Dolby Vision TV | Jaskier

Сообщение Крутой перец » 11 апр 2022, 04:01

#777

Информация о фильме
Название: Падение Луны
Оригинальное название: Moonfall
Год выхода: 2022
Жанр: Боевик, Фантастика

Режиссер: Роланд Эммерих

В ролях: Холли Берри, Патрик Уилсон, Джош Гад, Джон Брэдли, Майкл Пенья, Чарли Пламмер, Юй Вэньвэнь, Дональд Сазерленд, Эме Иквуакор, Каролина Бартчак, Максим Рой, Фрэнк Скорпион, Стивен Богерт, Андреас Апергис, Кэтлин Фи

О фильме:
В 2011 году во время рядового ремонта спутника на находившихся в открытом космосе астронавтов напал странный рой, вылетевший из лунного кратера. Один космонавт погиб, а второй — Брайан Харпер — несколько лет после происшествия пытался убедить НАСА, что в случившемся виноват необъяснимый феномен.
12 лет спустя Луна внезапно сходит с орбиты и идёт на столкновение с Землёй, что провоцирует множественные катаклизмы и грозит гибелью человечества. Астроном-самородок, первым заметивший данную аномалию и считающий, что Луна является мегаструктурой, безуспешно пытается достучаться до правительства, поэтому просит помощи у вышедшего в отставку Харпера



Страна: США, Китай, Канада
Студия: Centropolis Entertainment, AGC Studios, H Brothers
Продолжительность: 02:10:16
Перевод: Профессиональный многоголосый [Jaskier]

Файл
Формат: MP4
Кодек: H.265
Качество: WebDL 2160p
Видео: HEVC, Dolby Vision Profile 5, 24,1 Mбит/с, 3840x1600, 23.976 кадр/с
Звук:
Аудио #1 Русский: AC3, 48.0 kHz, 5.1 ch, 448 Kbps [MVO, Jaskier | Tnx.KinoPub]
Аудио #2 English: EAC3+Atmos, 48.0 kHz, 5.1 ch, 768 Kbps [Original]
Субтитры: русские(полные(x2)), украинские, английские(full, SDH)

Дополнительная информация:
Релиз в MP4 в 5-м профиле Dolby Vision для воспроизведении на устройствах с поддержкой DV. Протестировано на тв-боксах Nvidia Shield 2019, Zidoo Z1000 Pro, Amazon FireTV Stick 4k, TiVo Stream 4K и Ugoos AM6+ и многих других, а также на встроенных плеерах телевизоров LG, Sony, Phillips и Panasonic.
На устройствах без поддержки Dolby Vision проигрываться не будет(или будет, но с искаженными цветами), так как в видеоряде отсутствует HDR слой

Общее
Полное имя : T:RELEASESmoonfallMoonfall.2022.2160p.WEB-DL.DDP5.1.Atmos.DoVi.by.DVT.mp4
Формат : MPEG-4
Профиль формата : Base Media / Version 2
Идентификатор кодека : mp42 (isom/mp42/dby1)
Размер файла : 23,1 Гбайт
Продолжительность : 2 ч. 10 м.
Режим общего битрейта : Переменный
Общий поток : 25,4 Мбит/сек
Название фильма : Moonfall (2022) - Release by DVT
Дата кодирования : UTC 2022-04-01 14:35:58
Дата пометки : UTC 2022-04-01 14:35:58
Программа кодирования : GPAC-1.1.0-DEV-rev1027-g1daa0b5f-master

Видео
Идентификатор : 1
Формат : HEVC
Формат/Информация : High Efficiency Video Coding
Профиль формата : Main 10@L5@High
HDR format : Dolby Vision, Version 1.0, dvhe.05.06, BL+RPU
Идентификатор кодека : dvhe
Идентификатор кодека/Информация : High Efficiency Video Coding with Dolby Vision
Продолжительность : 2 ч. 10 м.
Битрейт : 24,1 Мбит/сек
Ширина : 3 832 пикселя
Высота : 1 600 пикселей
Соотношение сторон : 2,40:1
Режим частоты кадров : Постоянный
Частота кадров : 23,976 (24000/1001) кадра/сек
Цветовое пространство : YUV
Субдискретизация насыщенности : 4:2:0
Битовая глубина : 10 бит
Бит/(Пиксели*Кадры) : 0.164
Размер потока : 22,0 Гбайт (95%)
Заголовок : Moonfall (2022) - Release by Dolby Vision Torrents
Default : Да
Alternate group : 1
Дата кодирования : UTC 2022-04-01 04:42:12
Дата пометки : UTC 2022-04-01 14:38:54
Codec configuration box : hvcC+dvcC

Аудио #1
Идентификатор : 2
Формат : AC-3
Формат/Информация : Audio Coding 3
Коммерческое название : Dolby Digital
Идентификатор кодека : ac-3
Продолжительность : 2 ч. 10 м.
Вид битрейта : Постоянный
Битрейт : 448 Кбит/сек
Максимальный битрейт : 473 Кбит/сек
Каналы : 6 каналов
Channel layout : L R C LFE Ls Rs
Частота : 48,0 КГц
Частота кадров : 31,250 кадров/сек (1536 SPF)
Метод сжатия : С потерями
Размер потока : 417 Мбайт (2%)
Заголовок : MVO, Jaskier - AC3 5.1 ch
Язык : Russian
Service kind : Complete Main
Дата кодирования : UTC 2022-04-01 14:38:40
Дата пометки : UTC 2022-04-01 14:38:54

Аудио #2
Идентификатор : 3
Формат : E-AC-3 JOC
Формат/Информация : Enhanced AC-3 with Joint Object Coding
Коммерческое название : Dolby Digital Plus with Dolby Atmos
Идентификатор кодека : ec-3
Продолжительность : 2 ч. 10 м.
Вид битрейта : Постоянный
Битрейт : 768 Кбит/сек
Максимальный битрейт : 811 Кбит/сек
Каналы : 6 каналов
Channel layout : L R C LFE Ls Rs
Частота : 48,0 КГц
Частота кадров : 31,250 кадров/сек (1536 SPF)
Метод сжатия : С потерями
Размер потока : 716 Мбайт (3%)
Заголовок : Original - EAC3+Atmos 5.1 ch
Язык : English
Service kind : Complete Main
Default : Нет
Alternate group : 1
Дата пометки : UTC 2022-04-01 14:38:54
Complexity index : Not present / 16
Number of dynamic objects : 15
Bed channel count : 1 канал
Bed channel configuration : LFE

Текст #1
Идентификатор : 4
Формат : Timed Text
Идентификатор кодека : tx3g
Продолжительность : 2 ч. 0 м.
Вид битрейта : Переменный
Битрейт : 127 бит/сек
Размер потока : 112 Кбайт (0%)
Заголовок : Full v.1
Язык : Russian
Forced : Нет
Дата кодирования : UTC 2022-04-01 14:38:54
Дата пометки : UTC 2022-04-01 14:38:54

Текст #2
Идентификатор : 5
Формат : Timed Text
Идентификатор кодека : tx3g
Продолжительность : 2 ч. 0 м.
Вид битрейта : Переменный
Битрейт : 128 бит/сек
Размер потока : 113 Кбайт (0%)
Заголовок : Full v.2
Язык : Russian
Forced : Нет
Дата кодирования : UTC 2022-04-01 14:38:54
Дата пометки : UTC 2022-04-01 14:38:54

Текст #3
Идентификатор : 6
Формат : Timed Text
Идентификатор кодека : tx3g
Продолжительность : 2 ч. 0 м.
Вид битрейта : Переменный
Битрейт : 124 бит/сек
Размер потока : 110 Кбайт (0%)
Заголовок : Full
Язык : Ukrainian
Forced : Нет
Дата кодирования : UTC 2022-04-01 14:38:54
Дата пометки : UTC 2022-04-01 14:38:54

Текст #4
Идентификатор : 7
Формат : Timed Text
Идентификатор кодека : tx3g
Продолжительность : 2 ч. 0 м.
Вид битрейта : Переменный
Битрейт : 81 бит/сек
Размер потока : 71,9 Кбайт (0%)
Заголовок : Full
Язык : English
Forced : Нет
Дата кодирования : UTC 2022-04-01 04:46:55
Дата пометки : UTC 2022-04-01 14:38:54

Текст #5
Идентификатор : 8
Формат : Timed Text
Идентификатор кодека : tx3g
Продолжительность : 2 ч. 0 м.
Вид битрейта : Переменный
Битрейт : 79 бит/сек
Размер потока : 69,7 Кбайт (0%)
Заголовок : SDH
Язык : English
Forced : Нет
Дата кодирования : UTC 2022-04-01 04:46:55
Дата пометки : UTC 2022-04-01 14:38:54
Невозможно получить скрины с нормальными цветами с PC, так как невозможно захватить кадр слоя DV если в видеоряде отсутствуют метаданные HDR.



Релиз от: Dolby Vision Torrents
Крутой перец
Аватара пользователя
 
Раздал: 265.74 ГБ
Скачал: 1.45 ГБ
Ратио: 183.536
Сообщения: 211
Зарегистрирован: 10 июл 2014, 11:59
  • Торрент
Автор: Крутой перец Хэш: ---
Добавлен: 11 апр 2022, 04:01 Приватный: Нет (DHT включён)
Статус: Проверен
Размер: 23.08 ГБ (24 785 714 905 байт)
Изменил:
---
Скачали: 2304 (Раздающих: 0%)
Причина:
---
Здоровье: 100%
Сидеров: 101 Личеров: 34
Скорость раздачи: 0 байт/сек Скорость скачивания: 0 байт/сек
Последний сидер: 1 месяц 5 дней 1 час 35 минут 27 секунд назад Последний личер: 1 месяц 5 дней 1 час 35 минут 27 секунд назад
Для скачивания торрента необходимо зарегистрироваться или войти на трекер.

Форум Статистика

Сейчас этот форум просматривают: нет зарегистрированных пользователей и гости: 4

Настройки

Вернуться в Фильмы / HDTV / HD / Blu-Ray

cron
Ресурс не предоставляет электронные версии произведений, а занимается лишь коллекционированием и каталогизацией ссылок, присылаемых и публикуемых на форуме нашими читателями. Если вы являетесь правообладателем какого-либо представленного материала и не желаете чтобы ссылка на него находилась в нашем каталоге, свяжитесь с нами и мы незамедлительно удалим её. Файлы для обмена на трекере предоставлены пользователями сайта, и администрация не несёт ответственности за их содержание. Просьба не заливать файлы, защищенные авторскими правами, а также файлы нелегального содержания!
tracker_cron