Модераторы: K15, Младшие модераторы, Модераторы

Знакомьтесь: Дэйв / Meet Dave (2008) BDRip-HEVC 1080p от RIPS CLUB | D

Сообщение Крутой перец » 11 апр 2022, 04:01

#777
Название: Знакомьтесь: Дэйв
Оригинальное название: Meet Dave
Год производства: 2008
Производство: США / 20th Century Fox Film Corporation, Deep River Productions, Friendly Films, Guy Walks into a Bar Productions, Regency Enterprises, Road Rebel
Продолжительность: 01:30:23
Перевод: дублированный
Жанр: фантастика, мелодрама, комедия, приключения, семейный

Режиссёр: Брайан Роббинс

В ролях: Эдди Мёрфи, Элизабет Бэнкс, Гэбриэл Юнион, Скотт Каан, Эд Хелмс, Кевин Харт, Майк О’Мэлли, Пэт Килбейн, Джуда Фридландер, Марк Блукас

О фильме: В поисках способа спасения своего мира, находящегося на грани катастрофы, команда миниатюрных человекоподобных пришельцев прибывает на Землю на корабле, замаскированном под тело обычного человека. В нашем мире им приходится приспосабливаться, чтобы не быть схваченными людьми.



Качество: BDRip-HEVC 1080p
Кодек: HEVC (x265)
Видео: 1920x1040 (1.85:1), 9279 Кбит/сек, HEVC (Main10@L.4.1@High) 10 бит
Звук:
Аудио1: AC3, 6 ch, 640 Kbps - Русский, DUB
Аудио2: AC3, 6 ch, 384 Kbps - Украинский, DUB
Аудио3: AC3, 6 ch, 640 Kbps - English, Original
Субтитры: Русские полные (SRT), Украинские полные (SRT), English full (SRT, SDH)
Навигация по главам: Есть
x265 [info]: frame I: 547, Avg QP:17.21 kb/s: 23699.87
x265 [info]: frame P: 26087, Avg QP:18.76 kb/s: 17362.66
x265 [info]: frame B: 103408, Avg QP:20.60 kb/s: 7162.89
x265 [info]: Weighted P-Frames: Y:4.2% UV:3.5%
x265 [info]: Weighted B-Frames: Y:4.1% UV:2.8%
x265 [info]: consecutive B-frames: 2.2% 3.1% 5.6% 35.5% 11.8% 34.8% 4.1% 2.5% 0.2% 0.1% 0.1% 0.1%
x265 [info]: encoded 130042 frames in 131745.31s (0.99 fps), 9278.57 kb/s, Avg QP:20.21
Общее
Уникальный идентификатор : 149411618484701630205698928680084420732 (0x7067A189BBEAC45F6027B9725997B87C)
Полное имя : .Знакомьтесь.Дэйв.Meet.Dave.2008.BDRip-HEVC.1080p.mkv
Формат : Matroska
Версия формата : Version 4
Размер файла : 6,91 Гбайт
Продолжительность : 1 ч. 30 м.
Общий поток : 10,9 Мбит/сек
Название фильма : Знакомьтесь.Дэйв.Meet.Dave.2008.BDRip-HEVC.1080p
Дата кодирования : UTC 2022-04-01 13:06:05
Программа кодирования : mkvmerge v66.0.0 ('Josie') 64-bit
Библиотека кодирования : libebml v1.4.2 + libmatroska v1.6.4

Видео
Идентификатор : 1
Формат : HEVC
Формат/Информация : High Efficiency Video Coding
Профиль формата : Main 10@L4.1@High
Идентификатор кодека : V_MPEGH/ISO/HEVC
Продолжительность : 1 ч. 30 м.
Битрейт : 9 279 Кбит/сек
Ширина : 1 920 пикселей
Высота : 1 040 пикселей
Соотношение сторон : 1,85:1
Режим частоты кадров : Постоянный
Частота кадров : 23,976 (24000/1001) кадра/сек
Цветовое пространство : YUV
Субдискретизация насыщенности : 4:2:0
Битовая глубина : 10 бит
Бит/(Пиксели*Кадры) : 0.194
Размер потока : 5,86 Гбайт (85%)
Заголовок : Meet Dave / Rip by OldGamer
Библиотека кодирования : x265 3.5+35-e3713124d:[Windows][GCC 11.2.0][64 bit] 10bit
Настройки программы : cpuid=1111039 / frame-threads=3 / numa-pools=8 / wpp / no-pmode / no-pme / no-psnr / no-ssim / log-level=2 / input-csp=1 / input-res=1920x1040 / interlace=0 / total-frames=130042 / level-idc=41 / high-tier=1 / uhd-bd=0 / ref=5 / no-allow-non-conformance / no-repeat-headers / annexb / no-aud / no-eob / no-eos / no-hrd / info / hash=0 / no-temporal-layers / open-gop / min-keyint=23 / keyint=240 / gop-lookahead=0 / bframes=11 / b-adapt=2 / b-pyramid / bframe-bias=0 / rc-lookahead=40 / lookahead-slices=0 / scenecut=40 / no-hist-scenecut / radl=0 / no-splice / no-intra-refresh / ctu=32 / min-cu-size=8 / rect / amp / max-tu-size=32 / tu-inter-depth=4 / tu-intra-depth=4 / limit-tu=1 / rdoq-level=2 / dynamic-rd=0.00 / no-ssim-rd / signhide / no-tskip / nr-intra=0 / nr-inter=0 / no-constrained-intra / no-strong-intra-smoothing / max-merge=5 / limit-refs=3 / no-limit-modes / me=3 / subme=7 / merange=57 / temporal-mvp / no-frame-dup / no-hme / weightp / weightb / no-analyze-src-pics / deblock=-2:-2 / no-sao / no-sao-non-deblock / rd=6 / selective-sao=0 / no-early-skip / no-rskip / no-fast-intra / no-tskip-fast / no-cu-lossless / b-intra / no-splitrd-skip / rdpenalty=0 / psy-rd=2.00 / psy-rdoq=1.00 / no-rd-refine / no-lossless / cbqpoffs=0 / crqpoffs=0 / rc=crf / crf=19.5 / qcomp=0.60 / qpstep=4 / stats-write=0 / stats-read=0 / vbv-maxrate=50000 / vbv-bufsize=50000 / vbv-init=0.9 / min-vbv-fullness=50.0 / max-vbv-fullness=80.0 / crf-max=0.0 / crf-min=0.0 / ipratio=1.40 / pbratio=1.30 / aq-mode=1 / aq-strength=1.00 / no-cutree / zone-count=1 / zones: / start-frame=126140 / end-frame=130042 / qp=36 / no-strict-cbr / qg-size=32 / no-rc-grain / qpmax=69 / qpmin=0 / no-const-vbv / sar=1 / overscan=0 / videoformat=5 / range=0 / colorprim=2 / transfer=2 / colormatrix=2 / chromaloc=0 / display-window=0 / cll=0,0 / min-luma=0 / max-luma=1023 / log2-max-poc-lsb=8 / vui-timing-info / vui-hrd-info / slices=1 / no-opt-qp-pps / no-opt-ref-list-length-pps / no-multi-pass-opt-rps / scenecut-bias=0.00 / hist-threshold=0.03 / no-opt-cu-delta-qp / no-aq-motion / no-hdr10 / no-hdr10-opt / no-dhdr10-opt / no-idr-recovery-sei / analysis-reuse-level=0 / analysis-save-reuse-level=0 / analysis-load-reuse-level=0 / scale-factor=0 / refine-intra=0 / refine-inter=0 / refine-mv=1 / refine-ctu-distortion=0 / no-limit-sao / ctu-info=0 / no-lowpass-dct / refine-analysis-type=0 / copy-pic=1 / max-ausize-factor=1.0 / no-dynamic-refine / no-single-sei / no-hevc-aq / no-svt / no-field / qp-adaptation-range=1.00 / scenecut-aware-qp=0conformance-window-offsets / right=0 / bottom=0 / decoder-max-rate=0 / no-vbv-live-multi-pass
Язык : English
Default : Да
Forced : Нет

Аудио #1
Идентификатор : 2
Формат : AC-3
Формат/Информация : Audio Coding 3
Коммерческое название : Dolby Digital
Идентификатор кодека : A_AC3
Продолжительность : 1 ч. 30 м.
Вид битрейта : Постоянный
Битрейт : 640 Кбит/сек
Каналы : 6 каналов
Channel layout : L R C LFE Ls Rs
Частота : 48,0 КГц
Частота кадров : 31,250 кадров/сек (1536 SPF)
Метод сжатия : С потерями
Размер потока : 414 Мбайт (6%)
Заголовок : DUB
Язык : Russian
Service kind : Complete Main
Default : Да
Forced : Нет

Аудио #2
Идентификатор : 3
ID in the original source medium : 4354 (0x1102)
Формат : AC-3
Формат/Информация : Audio Coding 3
Коммерческое название : Dolby Digital
Идентификатор кодека : A_AC3
Продолжительность : 1 ч. 30 м.
Вид битрейта : Постоянный
Битрейт : 384 Кбит/сек
Каналы : 6 каналов
Channel layout : L R C LFE Ls Rs
Частота : 48,0 КГц
Частота кадров : 31,250 кадров/сек (1536 SPF)
Метод сжатия : С потерями
Задержка видео : 800 мс.
Размер потока : 248 Мбайт (4%)
Заголовок : DUB
Язык : Ukrainian
Service kind : Complete Main
Default : Нет
Forced : Нет
Носитель оригинала : Blu-ray

Аудио #3
Идентификатор : 4
Формат : AC-3
Формат/Информация : Audio Coding 3
Коммерческое название : Dolby Digital
Идентификатор кодека : A_AC3
Продолжительность : 1 ч. 30 м.
Вид битрейта : Постоянный
Битрейт : 640 Кбит/сек
Каналы : 6 каналов
Channel layout : L R C LFE Ls Rs
Частота : 48,0 КГц
Частота кадров : 31,250 кадров/сек (1536 SPF)
Метод сжатия : С потерями
Размер потока : 414 Мбайт (6%)
Язык : English
Service kind : Complete Main
Default : Нет
Forced : Нет

Текст #1
Идентификатор : 5
Формат : UTF-8
Идентификатор кодека : S_TEXT/UTF8
Идентификатор кодека/Информация : UTF-8 Plain Text
Продолжительность : 1 ч. 24 м.
Битрейт : 91 бит/сек
Count of elements : 1057
Размер потока : 57,0 Кбайт (0%)
Язык : Russian
Default : Нет
Forced : Нет

Текст #2
Идентификатор : 6
Формат : UTF-8
Идентификатор кодека : S_TEXT/UTF8
Идентификатор кодека/Информация : UTF-8 Plain Text
Продолжительность : 1 ч. 24 м.
Битрейт : 86 бит/сек
Count of elements : 1054
Размер потока : 53,4 Кбайт (0%)
Язык : Ukrainian
Default : Нет
Forced : Нет

Текст #3
Идентификатор : 7
Формат : UTF-8
Идентификатор кодека : S_TEXT/UTF8
Идентификатор кодека/Информация : UTF-8 Plain Text
Продолжительность : 1 ч. 26 м.
Битрейт : 64 бит/сек
Count of elements : 1134
Размер потока : 40,8 Кбайт (0%)
Язык : English
Default : Нет
Forced : Нет

Текст #4
Идентификатор : 8
Формат : UTF-8
Идентификатор кодека : S_TEXT/UTF8
Идентификатор кодека/Информация : UTF-8 Plain Text
Продолжительность : 1 ч. 26 м.
Битрейт : 68 бит/сек
Count of elements : 1220
Размер потока : 43,1 Кбайт (0%)
Заголовок : SDH
Язык : English
Default : Нет
Forced : Нет

Меню
00:00:00.000 : Main Titles
00:01:11.738 : From Outer Space
00:05:29.746 : Streets Of Manhattan
00:07:15.059 : To Drain The Oceans
00:11:57.842 : First Verbal Encounter
00:15:11.577 : Staying Alive
00:21:19.695 : Learning The Ropes
00:23:42.671 : Wardrobe Debacle
00:27:09.127 : Top Secret -- Or Something
00:30:25.824 : Sticking With Josh
00:32:56.724 : The Most Powerful Force
00:35:28.458 : Off-Balance
00:38:18.713 : Urban Campers
00:39:27.406 : A Wonderful Life
00:44:03.474 : Such A Goofball
00:49:31.677 : The Jerk We Seek
00:50:46.543 : The "M" In MRI
00:54:34.396 : On The Brink Of Anarchy
01:00:14.569 : Welcome To Earth
01:07:28.085 : I Love New York
01:12:24.506 : Free With A Latte
01:14:42.352 : I Am Dave Ming Chang!
01:18:46.930 : All Hail The Hero
01:25:49.561 : End Titles


Релиз от: OldGamer
Крутой перец
Аватара пользователя
 
Раздал: 265.74 ГБ
Скачал: 1.45 ГБ
Ратио: 183.536
Сообщения: 211
Зарегистрирован: 10 июл 2014, 11:59
  • Торрент
Автор: Крутой перец Хэш: ---
Добавлен: 11 апр 2022, 04:01 Приватный: Нет (DHT включён)
Статус: Проверен
Размер: 6.91 ГБ (7 421 384 983 байт)
Изменил:
---
Скачали: 157 (Раздающих: 0%)
Причина:
---
Здоровье: 100%
Сидеров: 21 Личеров: 3
Скорость раздачи: 0 байт/сек Скорость скачивания: 0 байт/сек
Последний сидер: 1 месяц 5 дней 1 час 25 минут 1 секунду назад Последний личер: 1 месяц 5 дней 1 час 25 минут 1 секунду назад
Для скачивания торрента необходимо зарегистрироваться или войти на трекер.

Форум Статистика

Сейчас этот форум просматривают: нет зарегистрированных пользователей и гости: 3

Настройки

Вернуться в Фильмы / HDTV / HD / Blu-Ray

cron
Ресурс не предоставляет электронные версии произведений, а занимается лишь коллекционированием и каталогизацией ссылок, присылаемых и публикуемых на форуме нашими читателями. Если вы являетесь правообладателем какого-либо представленного материала и не желаете чтобы ссылка на него находилась в нашем каталоге, свяжитесь с нами и мы незамедлительно удалим её. Файлы для обмена на трекере предоставлены пользователями сайта, и администрация не несёт ответственности за их содержание. Просьба не заливать файлы, защищенные авторскими правами, а также файлы нелегального содержания!
tracker_cron