Модераторы: K15, Младшие модераторы, Модераторы

Падение Луны / Moonfall (2022) WEB-DL 2160p | 4K | SDR | Jaskier

Сообщение Крутой перец » 11 апр 2022, 04:01

#777
Информация о фильме
Название: Падение Луны
Оригинальное название: Moonfall
Год выхода: 2022
Жанр: Боевик, Фантастика
Режиссер: Роланд Эммерих
В ролях: Холли Берри, Патрик Уилсон, Джош Гад, Джон Брэдли, Майкл Пенья, Чарли Пламмер, Юй Вэньвэнь, Дональд Сазерленд, Эме Иквуакор, Каролина Бартчак, Максим Рой, Фрэнк Скорпион, Стивен Богерт, Андреас Апергис, Кэтлин Фи

О фильме:
В 2011 году во время рядового ремонта спутника на находившихся в открытом космосе астронавтов напал странный рой, вылетевший из лунного кратера. Один космонавт погиб, а второй — Брайан Харпер — несколько лет после происшествия пытался убедить НАСА, что в случившемся виноват необъяснимый феномен.
12 лет спустя Луна внезапно сходит с орбиты и идёт на столкновение с Землёй, что провоцирует множественные катаклизмы и грозит гибелью человечества. Астроном-самородок, первым заметивший данную аномалию и считающий, что Луна является мегаструктурой, безуспешно пытается достучаться до правительства, поэтому просит помощи у вышедшего в отставку Харпера



Страна: США, Китай, Канада
Продолжительность: 02:10:16
Перевод: Профессиональный, многоголосый закадровый (Jaskier)

Файл
Кодек: H.265
Качество: WEB-DL 2160p
Видео: HEVC , 3832x1600 ( 2,40:1), 20.4 Mb/s (0.139 b/px), 23.976 fps
Звук:
Аудио #1: AC3, 384 kbps (CBR), 48.0 KHz, 6 ch, Russian
Аудио #2: E-AC3, 768 kbps (CBR), 48.0 KHz, 6 ch, English
Субтитры:
English

РЕКЛАМЫ НЕТ

Общее
Уникальный идентификатор : 224083151448445473871204733223468156453 (0xA894D85B2471FF6C7735B6AFAA664625)
Полное имя : D:Moonfall.2022.2160p.mkv
Формат : Matroska
Версия формата : Version 4
Размер файла : 19,6 Гбайт
Продолжительность : 2 ч. 10 м.
Общий поток : 21,5 Мбит/сек
Дата кодирования : UTC 2022-04-01 13:39:45
Программа кодирования : mkvmerge v35.0.0 ('All The Love In The World') 64-bit
Библиотека кодирования : libebml v1.3.9 + libmatroska v1.5.2

Видео
Идентификатор : 1
Формат : HEVC
Формат/Информация : High Efficiency Video Coding
Профиль формата : Main 10@L5@High
Идентификатор кодека : V_MPEGH/ISO/HEVC
Продолжительность : 2 ч. 10 м.
Битрейт : 20,4 Мбит/сек
Ширина : 3 832 пикселя
Высота : 1 600 пикселей
Соотношение сторон : 2,40:1
Режим частоты кадров : Постоянный
Частота кадров : 23,976 кадра/сек
Цветовое пространство : YUV
Субдискретизация насыщенности : 4:2:0
Битовая глубина : 10 бит
Бит/(Пиксели*Кадры) : 0.139
Размер потока : 18,5 Гбайт (95%)
Default : Да
Forced : Нет
Цветовой диапазон : Limited
Основные цвета : BT.709
Характеристики трансфера : BT.709
Коэффициенты матрицы : BT.709

Аудио #1
Идентификатор : 2
Формат : AC-3
Формат/Информация : Audio Coding 3
Коммерческое название : Dolby Digital
Идентификатор кодека : A_AC3
Продолжительность : 2 ч. 10 м.
Вид битрейта : Постоянный
Битрейт : 384 Кбит/сек
Каналы : 6 каналов
Channel layout : L R C LFE Ls Rs
Частота : 48,0 КГц
Частота кадров : 31,250 кадров/сек (1536 SPF)
Метод сжатия : С потерями
Размер потока : 358 Мбайт (2%)
Заголовок : MVO_Jaskier
Язык : Russian
Service kind : Complete Main
Default : Да
Forced : Нет

Аудио #2
Идентификатор : 3
Формат : E-AC-3 JOC
Формат/Информация : Enhanced AC-3 with Joint Object Coding
Коммерческое название : Dolby Digital Plus with Dolby Atmos
Идентификатор кодека : A_EAC3
Продолжительность : 2 ч. 10 м.
Вид битрейта : Постоянный
Битрейт : 768 Кбит/сек
Каналы : 6 каналов
Channel layout : L R C LFE Ls Rs
Частота : 48,0 КГц
Частота кадров : 31,250 кадров/сек (1536 SPF)
Метод сжатия : С потерями
Размер потока : 716 Мбайт (4%)
Язык : English
Service kind : Complete Main
Default : Нет
Forced : Нет
Complexity index : 16
Number of dynamic objects : 15
Bed channel count : 1 канал
Bed channel configuration : LFE

Текст #1
Идентификатор : 4
Формат : UTF-8
Идентификатор кодека : S_TEXT/UTF8
Идентификатор кодека/Информация : UTF-8 Plain Text
Продолжительность : 2 ч. 0 м.
Битрейт : 69 бит/сек
Count of elements : 2261
Размер потока : 61,8 Кбайт (0%)
Заголовок : English
Язык : English
Default : Нет
Forced : Нет

Текст #2
Идентификатор : 5
Формат : UTF-8
Идентификатор кодека : S_TEXT/UTF8
Идентификатор кодека/Информация : UTF-8 Plain Text
Продолжительность : 2 ч. 0 м.
Битрейт : 72 бит/сек
Count of elements : 2266
Размер потока : 64,1 Кбайт (0%)
Заголовок : English [SDH]
Язык : English
Default : Нет
Forced : Нет



Крутой перец
Аватара пользователя
 
Раздал: 265.74 ГБ
Скачал: 1.45 ГБ
Ратио: 183.536
Сообщения: 211
Зарегистрирован: 10 июл 2014, 11:59
  • Торрент
Автор: Крутой перец Хэш: ---
Добавлен: 11 апр 2022, 04:01 Приватный: Нет (DHT включён)
Статус: Проверен
Размер: 19.58 ГБ (21 028 256 472 байт)
Изменил:
---
Скачали: 1963 (Раздающих: 0%)
Причина:
---
Здоровье: 100%
Сидеров: 115 Личеров: 16
Скорость раздачи: 0 байт/сек Скорость скачивания: 0 байт/сек
Последний сидер: 1 месяц 5 дней 2 часа 4 минуты 33 секунды назад Последний личер: 1 месяц 5 дней 2 часа 4 минуты 33 секунды назад
Для скачивания торрента необходимо зарегистрироваться или войти на трекер.

Форум Статистика

Сейчас этот форум просматривают: нет зарегистрированных пользователей и гости: 6

Настройки

Вернуться в Фильмы / HDTV / HD / Blu-Ray

cron
Ресурс не предоставляет электронные версии произведений, а занимается лишь коллекционированием и каталогизацией ссылок, присылаемых и публикуемых на форуме нашими читателями. Если вы являетесь правообладателем какого-либо представленного материала и не желаете чтобы ссылка на него находилась в нашем каталоге, свяжитесь с нами и мы незамедлительно удалим её. Файлы для обмена на трекере предоставлены пользователями сайта, и администрация не несёт ответственности за их содержание. Просьба не заливать файлы, защищенные авторскими правами, а также файлы нелегального содержания!
tracker_cron