Модераторы: K15, Младшие модераторы, Модераторы

Падение Луны / Moonfall (2022) WEB-DL 1080p от селезень | P

Сообщение Крутой перец » 11 апр 2022, 04:01

#777
Информация о фильме
Название: Падение Луны
Оригинальное название: Moonfall
Год выхода: 2022
Жанр: Фантастика, боевик

Режиссер: Роланд Эммерих

В ролях: Холли Берри, Патрик Уилсон, Джон Брэдли, Майкл Пенья, Дональд Сазерленд, Чарли Пламмер, Юй Вэньвэнь, Эме Иквуакор, Каролина Бартчак, Максим Рой, Стивен Богерт, Хэйзел Наджент


О фильме:
По неизвестным причинам Луна сошла с орбиты Земли, и теперь человечеству грозит полное уничтожение. Глава НАСА и бывшая астронавтка Джо Фаулер убеждена в том, что знает, как спасти планету, но верят в это лишь ее бывший коллега Брайан Харпер и конспиролог К. С. Хаусман. За несколько недель до столкновения спутника с Землей героям предстоит совершить невозможное и предотвратить конец света. «Падение Луны» — фильм-катастрофа от мастера жанра Роланда Эммериха с Холли Берри в главной роли.



Страна: США, Китай, Канада
Студия: AGC Studios, Centropolis Entertainment, H Brothers
Продолжительность: 02:10:16
Перевод: Профессиональный многоголосый | Jaskier

Качество: WEB-DL 1080p | AMAZON Version
Видео: MPEG-4 AVC, 1920x800, 7511 Kbit/s, 23.976 fps
Аудио #01: 48 kHz, AC3, 5.1, 448 Kbps | Профессиональный многоголосый | Jaskier | RUS |
Аудио #02: 48 kHz, E-AC3, 5.1, 640 Kbps | Оригинал | ENG |
Субтитры: Русские (Full), английские



General
Unique ID : 178359311098102722942739577701265902942 (0x862EC0F9B818A333E9EEECD8BEF90D5E)
Complete name : D:Video1Moonfall.2022.AMZN.WEB-DL.1080p.seleZen.mkv
Format : Matroska
Format version : Version 4
File size : 7.83 GiB
Duration : 2 h 10 min
Overall bit rate : 8 602 kb/s
Movie name : Moonfall 2022 from seleZen
Encoded date : UTC 2022-04-01 13:38:13
Writing application : mkvmerge v59.0.0 ('Shining Star') 64-bit
Writing library : libebml v1.4.2 + libmatroska v1.6.4

Video
ID : 1
Format : AVC
Format/Info : Advanced Video Codec
Format profile : High@L4
Format settings : CABAC / 4 Ref Frames
Format settings, CABAC : Yes
Format settings, Reference : 4 frames
Codec ID : V_MPEG4/ISO/AVC
Duration : 2 h 10 min
Bit rate mode : Constant
Bit rate : 7 511 kb/s
Nominal bit rate : 10 000 kb/s
Width : 1 920 pixels
Height : 800 pixels
Display aspect ratio : 2.40:1
Frame rate mode : Constant
Frame rate : 23.976 (24000/1001) FPS
Color space : YUV
Chroma subsampling : 4:2:0
Bit depth : 8 bits
Scan type : Progressive
Bits/(Pixel*Frame) : 0.204
Stream size : 6.84 GiB (87%)
Language : English
Default : Yes
Forced : No
Color range : Limited
Color primaries : BT.709
Transfer characteristics : BT.709
Matrix coefficients : BT.709

Audio #1
ID : 2
Format : AC-3
Format/Info : Audio Coding 3
Commercial name : Dolby Digital
Codec ID : A_AC3
Duration : 2 h 10 min
Bit rate mode : Constant
Bit rate : 448 kb/s
Channel(s) : 6 channels
Channel layout : L R C LFE Ls Rs
Sampling rate : 48.0 kHz
Frame rate : 31.250 FPS (1536 SPF)
Compression mode : Lossy
Stream size : 417 MiB (5%)
Title : MVO [Jaskier]
Language : Russian
Service kind : Complete Main
Default : Yes
Forced : Yes

Audio #2
ID : 3
Format : E-AC-3
Format/Info : Enhanced AC-3
Commercial name : Dolby Digital Plus
Codec ID : A_EAC3
Duration : 2 h 10 min
Bit rate mode : Constant
Bit rate : 640 kb/s
Channel(s) : 6 channels
Channel layout : L R C LFE Ls Rs
Sampling rate : 48.0 kHz
Frame rate : 31.250 FPS (1536 SPF)
Compression mode : Lossy
Stream size : 596 MiB (7%)
Title : Original
Language : English
Service kind : Complete Main
Default : No
Forced : No

Text #1
ID : 4
Format : UTF-8
Codec ID : S_TEXT/UTF8
Codec ID/Info : UTF-8 Plain Text
Duration : 2 h 0 min
Bit rate : 121 b/s
Count of elements : 1949
Stream size : 108 KiB (0%)
Title : Full
Language : Russian
Default : No
Forced : No

Text #2
ID : 5
Format : UTF-8
Codec ID : S_TEXT/UTF8
Codec ID/Info : UTF-8 Plain Text
Duration : 2 h 0 min
Bit rate : 69 b/s
Count of elements : 2261
Stream size : 61.8 KiB (0%)
Title : Full
Language : English
Default : No
Forced : No

Text #3
ID : 6
Format : UTF-8
Codec ID : S_TEXT/UTF8
Codec ID/Info : UTF-8 Plain Text
Duration : 2 h 0 min
Bit rate : 72 b/s
Count of elements : 2266
Stream size : 64.1 KiB (0%)
Title : SDH
Language : English
Default : No
Forced : No


Релиз:
Крутой перец
Аватара пользователя
 
Раздал: 265.74 ГБ
Скачал: 1.45 ГБ
Ратио: 183.536
Сообщения: 211
Зарегистрирован: 10 июл 2014, 11:59
  • Торрент
Автор: Крутой перец Хэш: ---
Добавлен: 11 апр 2022, 04:01 Приватный: Нет (DHT включён)
Статус: Проверен
Размер: 7.83 ГБ (8 404 953 244 байт)
Изменил:
---
Скачали: 64951 (Раздающих: 0%)
Причина:
---
Здоровье: 100%
Сидеров: 1874 Личеров: 220
Скорость раздачи: 0 байт/сек Скорость скачивания: 0 байт/сек
Последний сидер: 1 месяц 5 дней 2 часа 33 минуты 42 секунды назад Последний личер: 1 месяц 5 дней 2 часа 33 минуты 42 секунды назад
Для скачивания торрента необходимо зарегистрироваться или войти на трекер.

Форум Статистика

Сейчас этот форум просматривают: нет зарегистрированных пользователей и гости: 6

Настройки

Вернуться в Фильмы / HDTV / HD / Blu-Ray

cron
Ресурс не предоставляет электронные версии произведений, а занимается лишь коллекционированием и каталогизацией ссылок, присылаемых и публикуемых на форуме нашими читателями. Если вы являетесь правообладателем какого-либо представленного материала и не желаете чтобы ссылка на него находилась в нашем каталоге, свяжитесь с нами и мы незамедлительно удалим её. Файлы для обмена на трекере предоставлены пользователями сайта, и администрация не несёт ответственности за их содержание. Просьба не заливать файлы, защищенные авторскими правами, а также файлы нелегального содержания!
tracker_cron