Модераторы: K15, Младшие модераторы, Модераторы

Яркость / Bright (2017) WEBRip-AVC от DoMiNo | P, A

Сообщение Крутой перец » 11 апр 2022, 04:01



Информация о фильме
Название: Яркость
Оригинальное название: Bright
Год выхода: 2017
Жанр: Фантастика, фэнтези, боевик, триллер, криминал
Режиссер: Дэвид Эйр
В ролях: Уилл Смит, Джоэл Эдгертон, Нуми Рапас, Эдгар Рамирес, Люси Фрай, Вероника Нго, Алекс Мераз, Хэппи Андерсон, Айк Баринхолц, Доун Оливери, Мэтт Джералд, Джей Эрнандес, Скарлет Спенсер, Андреа Наведо, Карлос Линарес

О фильме:
Действие разворачивается в Лос-Анджелесе, в вымышленном фантастическом мире, где царствуют не только высокие технологии, но и магия. В городе бок о бок с людьми живут эльфы, орки и другие сверхъестественные существа. Главный герой служит в полицейском департаменте, в специальном отделе, занимающимся раскрытием преступлений, в которых замешаны магические силы. Пытаясь раскрыть очередное дело, он вынужден объединиться с орком. Вместе им предстоит найти и защитить древний мистический артефакт, обладающий могущественными способностями, от рук злоумышленников.



Страна: США
Студия: Netflix, Overbrook Entertainment
Продолжительность: 01:57:46
Перевод: Профессиональный многоголосый, авторский
Субтитры: Русские (Forced, Full), английские

Файл
Формат: Matroska
Качество: WEBRip-AVC
Видео: 1046x438 at 24.000 fps, x264@L4.1, ~1679 kbps
Аудио 1: AC3, 6 ch, ~448 kbps - | Русский | | MVO, Jaskier
Аудио 2: AC3, 6 ch, ~384 kbps - | Русский | | MVO, AlexFilm
Аудио 2: AC3, 6 ch, ~448 kbps - | Русский | | AVO, М. Яроцкий
Формат субтитров: softsub (SRT)

***Релиз от: -=DoMiNo=-

x264 [info]: frame I:1317 Avg QP:14.26 size: 44387
x264 [info]: frame P:37682 Avg QP:16.33 size: 16873
x264 [info]: frame B:129961 Avg QP:18.83 size: 6025
x264 [info]: consecutive B-frames: 2.5% 2.9% 10.2% 22.2% 21.7% 18.3% 6.4% 12.7% 2.6% 0.5% 0.1%

General
Unique ID : 185183609103624280201706435272970008979 (0x8B5110D8273C5D4198D2634F42B2F993)
Complete name : K:Bright.2017.WEB-DLRip.x264.mkv
Format : Matroska
Format version : Version 4
File size : 2.43 GiB
Duration : 1 h 57 min
Overall bit rate : 2 953 kb/s
Encoded date : UTC 2022-04-01 09:41:24
Writing application : mkvmerge v63.0.0 ('Everything') 64-bit
Writing library : libebml v1.4.2 + libmatroska v1.6.4
Cover : Yes
Attachments : cover.jpg / cover 2.jpg

Video
ID : 1
Format : AVC
Format/Info : Advanced Video Codec
Format profile : High@L4.1
Format settings : CABAC / 12 Ref Frames
Format settings, CABAC : Yes
Format settings, Reference : 12 frames
Codec ID : V_MPEG4/ISO/AVC
Duration : 1 h 57 min
Bit rate : 1 679 kb/s
Width : 1 046 pixels
Height : 438 pixels
Display aspect ratio : 2.40:1
Frame rate mode : Constant
Frame rate : 24.000 FPS
Color space : YUV
Chroma subsampling : 4:2:0
Bit depth : 8 bits
Scan type : Progressive
Bits/(Pixel*Frame) : 0.153
Stream size : 1.38 GiB (57%)
Title : -=DoMiNo=-
Writing library : x264 core 164 r3094 bfc87b7
Encoding settings : cabac=1 / ref=12 / deblock=1:-3:-2 / analyse=0x3:0x133 / me=umh / subme=11 / psy=1 / psy_rd=1.05:0.00 / mixed_ref=1 / me_range=32 / chroma_me=1 / trellis=2 / 8x8dct=1 / cqm=0 / deadzone=21,11 / fast_pskip=0 / chroma_qp_offset=-2 / threads=17 / lookahead_threads=3 / sliced_threads=0 / nr=0 / decimate=1 / interlaced=0 / bluray_compat=0 / constrained_intra=0 / bframes=10 / b_pyramid=2 / b_adapt=2 / b_bias=0 / direct=1 / weightb=1 / open_gop=0 / weightp=2 / keyint=250 / keyint_min=24 / scenecut=40 / intra_refresh=0 / rc_lookahead=60 / rc=crf / mbtree=0 / crf=18.0 / qcomp=0.60 / qpmin=0 / qpmax=69 / qpstep=4 / vbv_maxrate=50000 / vbv_bufsize=62500 / crf_max=0.0 / nal_hrd=none / filler=0 / ip_ratio=1.30 / pb_ratio=1.20 / aq=3:0.80
Language : English
Default : Yes
Forced : No

Audio #1
ID : 2
Format : AC-3
Format/Info : Audio Coding 3
Commercial name : Dolby Digital
Codec ID : A_AC3
Duration : 1 h 57 min
Bit rate mode : Constant
Bit rate : 448 kb/s
Channel(s) : 6 channels
Channel layout : L R C LFE Ls Rs
Sampling rate : 48.0 kHz
Frame rate : 31.250 FPS (1536 SPF)
Compression mode : Lossy
Stream size : 376 MiB (15%)
Title : MVO (Jaskier)
Language : Russian
Service kind : Complete Main
Default : Yes
Forced : No

Audio #2
ID : 3
Format : AC-3
Format/Info : Audio Coding 3
Commercial name : Dolby Digital
Codec ID : A_AC3
Duration : 1 h 57 min
Bit rate mode : Constant
Bit rate : 384 kb/s
Channel(s) : 6 channels
Channel layout : L R C LFE Ls Rs
Sampling rate : 48.0 kHz
Frame rate : 31.250 FPS (1536 SPF)
Compression mode : Lossy
Stream size : 323 MiB (13%)
Title : MVO (AlexFilm)
Language : Russian
Service kind : Complete Main
Default : No
Forced : No

Audio #3
ID : 4
Format : AC-3
Format/Info : Audio Coding 3
Commercial name : Dolby Digital
Codec ID : A_AC3
Duration : 1 h 57 min
Bit rate mode : Constant
Bit rate : 448 kb/s
Channel(s) : 6 channels
Channel layout : L R C LFE Ls Rs
Sampling rate : 48.0 kHz
Frame rate : 31.250 FPS (1536 SPF)
Compression mode : Lossy
Stream size : 376 MiB (15%)
Title : AVO (М. Яроцкий)
Language : Russian
Service kind : Complete Main
Default : No
Forced : No

Text #1
ID : 5
Format : UTF-8
Codec ID : S_TEXT/UTF8
Codec ID/Info : UTF-8 Plain Text
Duration : 1 h 39 min
Bit rate : 4 b/s
Count of elements : 69
Stream size : 3.27 KiB (0%)
Title : Forced
Language : Russian
Default : Yes
Forced : No

Text #2
ID : 6
Format : UTF-8
Codec ID : S_TEXT/UTF8
Codec ID/Info : UTF-8 Plain Text
Duration : 1 h 48 min
Bit rate : 102 b/s
Count of elements : 1518
Stream size : 81.0 KiB (0%)
Title : Full
Language : Russian
Default : No
Forced : No

Text #3
ID : 7
Format : UTF-8
Codec ID : S_TEXT/UTF8
Codec ID/Info : UTF-8 Plain Text
Duration : 1 h 17 min
Bit rate : 2 b/s
Count of elements : 64
Stream size : 1.27 KiB (0%)
Title : Forced
Language : English
Default : No
Forced : No

Text #4
ID : 8
Format : UTF-8
Codec ID : S_TEXT/UTF8
Codec ID/Info : UTF-8 Plain Text
Duration : 1 h 48 min
Bit rate : 58 b/s
Count of elements : 1543
Stream size : 46.6 KiB (0%)
Title : Full
Language : English
Default : No
Forced : No

Text #5
ID : 9
Format : UTF-8
Codec ID : S_TEXT/UTF8
Codec ID/Info : UTF-8 Plain Text
Duration : 1 h 56 min
Bit rate : 74 b/s
Count of elements : 1978
Stream size : 63.3 KiB (0%)
Title : SDH
Language : English
Default : No
Forced : No

Menu
00:00:00.000 : :Глава 01
00:10:00.000 : :Глава 02
00:20:00.000 : :Глава 03
00:30:00.000 : :Глава 04
00:40:00.000 : :Глава 05
00:50:00.000 : :Глава 06
01:00:00.000 : :Глава 07
01:10:00.000 : :Глава 08
01:20:00.000 : :Глава 09
01:30:00.000 : :Глава 10
01:40:00.000 : :Глава 11
01:50:00.000 : :Глава 12
Крутой перец
Аватара пользователя
 
Раздал: 265.74 ГБ
Скачал: 1.45 ГБ
Ратио: 183.536
Сообщения: 211
Зарегистрирован: 10 июл 2014, 11:59
  • Торрент
Автор: Крутой перец Хэш: ---
Добавлен: 11 апр 2022, 04:01 Приватный: Нет (DHT включён)
Статус: Проверен
Размер: 2.43 ГБ (2 608 346 892 байт)
Изменил:
---
Скачали: 112 (Раздающих: 0%)
Причина:
---
Здоровье: 100%
Сидеров: 3 Личеров: 0
Скорость раздачи: 0 байт/сек Скорость скачивания: 0 байт/сек
Последний сидер: 1 месяц 5 дней 3 часа 7 минут 57 секунд назад Последний личер: Нет
Для скачивания торрента необходимо зарегистрироваться или войти на трекер.

Форум Статистика

Сейчас этот форум просматривают: нет зарегистрированных пользователей и гости: 6

Настройки

Вернуться в Фильмы / HDTV / HD / Blu-Ray

cron
Ресурс не предоставляет электронные версии произведений, а занимается лишь коллекционированием и каталогизацией ссылок, присылаемых и публикуемых на форуме нашими читателями. Если вы являетесь правообладателем какого-либо представленного материала и не желаете чтобы ссылка на него находилась в нашем каталоге, свяжитесь с нами и мы незамедлительно удалим её. Файлы для обмена на трекере предоставлены пользователями сайта, и администрация не несёт ответственности за их содержание. Просьба не заливать файлы, защищенные авторскими правами, а также файлы нелегального содержания!
tracker_cron