Модераторы: K15, Младшие модераторы, Модераторы

Первый встречный / Marry Me (Кэт Койро) [2022, Мелодрама, комедия, музыка, BDRip 720p / iTunes]

Сообщение 7Max7 » 09 апр 2022, 01:16

#777

Первый встречный / Marry Me


Информация о фильме
Название: Первый встречный
Оригинальное название: Marry Me
Год выхода: 2022
Страна: США
Студия: Kung Fu Monkey Productions, Nuyorican Productions, Perfect World (Beijing) Pictures Co., Universal Pictures
Продолжительность: 01:52:05
Перевод: Дублированный | iTunes
Жанр: Мелодрама, комедия, музыка

Режиссер: Кэт Койро

В ролях: Дженнифер Лопес, Оуэн Уилсон, Малума, Джон Брэдли, Хлоя Коулмэн, Сара Силверман, Уткарш Амбудкар, Джимми Фэллон, Стивен Уоллем, Мишель Бюто...

О фильме:
Звезда поп-музыки (Дженнифер Лопез) накануне свадьбы узнает о том, что ее жених-рокер изменял ей, и прямо во время выступления решает сделать предложение первому встречному мужчине, которым становится учитель математики (Оуэн Уилсон), случайно оказавшийся на концерте.



Качество: BDRip 720p
Видео: MPEG-4 AVC, 1280x536, 6778 Kbit/s, 23.976 fps
Аудио #01: 48 kHz, AC3, 5.1, 384 Kbps | iTunes | RUS |
Аудио #02: 48 kHz, AC3, 5.1, 640 Kbps | Оригинал | ENG |
Субтитры: Русские (Forced, full), английские

General
Unique ID : 292486510918092318445367840253167651723 (0xDC0ADA5C48D56BC0A782028CB7B9CB8B)
Complete name : D:Video1Marry.Me.2022.BDRip.720p.seleZen.mkv
Format : Matroska
Format version : Version 4
File size : 6.11 GiB
Duration : 1 h 52 min
Overall bit rate : 7 805 kb/s
Movie name : Marry Me 2022 from seleZen
Encoded date : UTC 2022-04-08 07:46:40
Writing application : mkvmerge v59.0.0 ('Shining Star') 64-bit
Writing library : libebml v1.4.2 + libmatroska v1.6.4

Video
ID : 1
Format : AVC
Format/Info : Advanced Video Codec
Format profile : High@L4.1
Format settings : CABAC / 12 Ref Frames
Format settings, CABAC : Yes
Format settings, Reference : 12 frames
Codec ID : V_MPEG4/ISO/AVC
Duration : 1 h 52 min
Bit rate : 6 778 kb/s
Width : 1 280 pixels
Height : 536 pixels
Display aspect ratio : 2.40:1
Frame rate mode : Constant
Frame rate : 23.976 (24000/1001) FPS
Color space : YUV
Chroma subsampling : 4:2:0
Bit depth : 8 bits
Scan type : Progressive
Bits/(Pixel*Frame) : 0.412
Stream size : 5.31 GiB (87%)
Title : playHD
Writing library : x264 core 164 r3085+55M 938b6d0 t_mod_New [(8 & 10)-bit@all X86_64]
Encoding settings : cabac=1 / ref=12 / deblock=1:-3:-3 / analyse=0x3:0x133 / me=umh / subme=10 / psy=1 / fade_compensate=0.00 / psy_rd=1.00:0.00 / mixed_ref=1 / me_range=32 / chroma_me=1 / trellis=2 / 8x8dct=1 / cqm=0 / deadzone=21,11 / fast_pskip=0 / chroma_qp_offset=-2 / threads=24 / lookahead_threads=4 / sliced_threads=0 / nr=0 / decimate=0 / interlaced=0 / bluray_compat=0 / constrained_intra=0 / fgo=0 / bframes=8 / b_pyramid=2 / b_adapt=2 / b_bias=0 / direct=3 / weightb=1 / open_gop=0 / weightp=2 / keyint=250 / keyint_min=23 / scenecut=40 / intra_refresh=0 / rc=crf / mbtree=0 / crf=15.0000 / qcomp=0.60 / qpmin=0:0:0 / qpmax=69:69:69 / qpstep=4 / ip_ratio=1.35 / pb_ratio=1.25 / aq=3:0.85 / aq-sensitivity=10.00 / aq-factor=1.00:1.00:1.00 / aq2=0 / aq3=0 / zones=15442,18452,b=1.3/86591,88866,b=1.2/154600,161249,b=0.7
Language : English
Default : Yes
Forced : No

Audio #1
ID : 2
Format : AC-3
Format/Info : Audio Coding 3
Commercial name : Dolby Digital
Codec ID : A_AC3
Duration : 1 h 52 min
Bit rate mode : Constant
Bit rate : 384 kb/s
Channel(s) : 6 channels
Channel layout : L R C LFE Ls Rs
Sampling rate : 48.0 kHz
Frame rate : 31.250 FPS (1536 SPF)
Compression mode : Lossy
Stream size : 308 MiB (5%)
Title : iTunes
Language : Russian
Service kind : Complete Main
Default : Yes
Forced : Yes

Audio #2
ID : 3
Format : AC-3
Format/Info : Audio Coding 3
Commercial name : Dolby Digital
Codec ID : A_AC3
Duration : 1 h 52 min
Bit rate mode : Constant
Bit rate : 640 kb/s
Channel(s) : 6 channels
Channel layout : L R C LFE Ls Rs
Sampling rate : 48.0 kHz
Frame rate : 31.250 FPS (1536 SPF)
Compression mode : Lossy
Stream size : 513 MiB (8%)
Title : Original
Language : English
Service kind : Complete Main
Default : No
Forced : No

Text #1
ID : 4
Format : UTF-8
Codec ID : S_TEXT/UTF8
Codec ID/Info : UTF-8 Plain Text
Duration : 1 h 45 min
Bit rate : 15 b/s
Count of elements : 235
Stream size : 12.3 KiB (0%)
Title : Forced
Language : Russian
Default : Yes
Forced : Yes

Text #2
ID : 5
Format : UTF-8
Codec ID : S_TEXT/UTF8
Codec ID/Info : UTF-8 Plain Text
Duration : 1 h 46 min
Bit rate : 133 b/s
Count of elements : 2251
Stream size : 104 KiB (0%)
Title : Full
Language : Russian
Default : No
Forced : No

Text #3
ID : 6
Format : UTF-8
Codec ID : S_TEXT/UTF8
Codec ID/Info : UTF-8 Plain Text
Duration : 1 h 51 min
Bit rate : 86 b/s
Count of elements : 2268
Stream size : 70.3 KiB (0%)
Title : Full
Language : English
Default : No
Forced : No

Text #4
ID : 7
Format : UTF-8
Codec ID : S_TEXT/UTF8
Codec ID/Info : UTF-8 Plain Text
Duration : 1 h 51 min
Bit rate : 94 b/s
Count of elements : 2430
Stream size : 77.3 KiB (0%)
Title : SDH
Language : English
Default : No
Forced : No

Menu
00:00:00.000 : Capítulo 01
00:03:10.774 : Capítulo 02
00:10:40.265 : Capítulo 03
00:15:43.276 : Capítulo 04
00:21:57.525 : Capítulo 05
00:25:52.676 : Capítulo 06
00:33:25.670 : Capítulo 07
00:40:23.755 : Capítulo 08
00:46:05.554 : Capítulo 09
00:50:29.944 : Capítulo 10
00:58:57.451 : Capítulo 11
01:04:45.965 : Capítulo 12
01:11:17.607 : Capítulo 13
01:15:31.902 : Capítulo 14
01:18:53.938 : Capítulo 15
01:26:40.695 : Capítulo 16
01:32:44.768 : Capítulo 17
01:36:59.105 : Capítulo 18
01:40:10.421 : Capítulo 19
01:45:06.383 : Capítulo 20


Релиз:
7Max7
Аватара пользователя
 
Раздал: 491.08 ГБ
Скачал: 4.25 ГБ
Ратио: 115.495
Сообщения: 481
Зарегистрирован: 14 фев 2014, 18:28
  • Торрент
Автор: 7Max7 Хэш: ---
Добавлен: 09 апр 2022, 01:16 Приватный: Нет (DHT включён)
Статус: Проверен
Размер: 6.11 ГБ (6 561 603 758 байт)
Изменил:
---
Скачали: 10605 (Раздающих: 0%)
Причина:
---
Здоровье: 100%
Сидеров: 1387 Личеров: 395
Скорость раздачи: 0 байт/сек Скорость скачивания: 0 байт/сек
Последний сидер: 1 месяц 5 дней 1 час 34 минуты 25 секунд назад Последний личер: 1 месяц 5 дней 1 час 34 минуты 25 секунд назад
Для скачивания торрента необходимо зарегистрироваться или войти на трекер.

Форум Статистика

Сейчас этот форум просматривают: нет зарегистрированных пользователей и гости: 5

Настройки

Вернуться в Фильмы / HDTV / HD / Blu-Ray

cron
Ресурс не предоставляет электронные версии произведений, а занимается лишь коллекционированием и каталогизацией ссылок, присылаемых и публикуемых на форуме нашими читателями. Если вы являетесь правообладателем какого-либо представленного материала и не желаете чтобы ссылка на него находилась в нашем каталоге, свяжитесь с нами и мы незамедлительно удалим её. Файлы для обмена на трекере предоставлены пользователями сайта, и администрация не несёт ответственности за их содержание. Просьба не заливать файлы, защищенные авторскими правами, а также файлы нелегального содержания!
tracker_cron