Модераторы: K15, Младшие модераторы, Модераторы

Ярость / Furioza (Циприан T. Оленцкий / Cyprian T. Olencki) [2021, Боевик, Драма, Криминал, WEB-DL 1080p / D]

Сообщение Sovetnik » 08 апр 2022, 01:17

#777

Ярость / Furioza


Год выпуска: 2021
Выпущено: Польша
Продолжительность: 02:20:34
Перевод: Профессиональный (дублированный) | Iyuno-SDI Group по заказу Netflix
Жанр: Боевик, Драма, Криминал

Режиссер: Циприан T. Оленцкий / Cyprian T. Olencki

В ролях: Матеуш Банасюк, Вероника Ксёнжкевич, Матеуш Даменцки, Паулина Галонзка, Лукаш Симлят, Шимон Бобровский, Войцех Зелиньский, Януш Хабёр, Цезары Лукашевич, Себастьян Станкевич, Сильвия Ющак, Мариуш Дренжек, Патрик Михаляк, Витольд Велиньский, Оскар Сточыньский, Мацей Бабич, Агнешка Вавжиняк, Кацпер Сасин..

О фильме:
Сотрудница полиции делает бывшему парню предложение, от которого нельзя отказаться: либо он внедряется в банду и становится доносчиком, либо его брат садится в тюрьму....




Тип релиза: WEB-DL 1080p
Контейнер: MKV
Видео: MPEG-4 AVC, 4539 kbps, 1920x1080 (16:9), 24.000 fps, 0.091 bit/pixel, High@L4
Аудио 1: 48 kHz, AC3 Dolby Digital, 3/2 (L,C,R,l,r) + LFE ch, ~448 kbps | Дублированный
Аудио 2: 48 kHz, Е-AC3 Dolby Digital Plus, 2/0 (L,R) ch, ~128 kbps | Польский
Субтитры: Английские, французские, немецкие
Формат субтитров: softsub (SRT)

General
Unique ID : 121512536341221013986748047520053190723 (0x5B6A76969F133C0FE1A73B8B9E29E043)
Complete name : D:Furioza.2021.1080p.NF.WEB-DL.mkv
Format : Matroska
Format version : Version 4 / Version 2
File size : 5.02 GiB
Duration : 2 h 20 min
Overall bit rate mode : Variable
Overall bit rate : 5 116 kb/s
Movie name : Furioza.2021.1080p.NF.WEB-DL
Encoded date : UTC 2022-04-06 22:15:23
Writing application : mkvmerge v64.0.0 ('Willows') 64-bit
Writing library : libebml v1.4.2 + libmatroska v1.6.4
Attachments : poster.jpg

Video
ID : 1
Format : AVC
Format/Info : Advanced Video Codec
Format profile : High@L4
Format settings, CABAC : Yes
Format settings, ReFrames : 4 frames
Codec ID : V_MPEG4/ISO/AVC
Duration : 2 h 20 min
Bit rate mode : Variable
Bit rate : 4 539 kb/s
Maximum bit rate : 20.0 Mb/s
Width : 1 920 pixels
Height : 1 080 pixels
Display aspect ratio : 16:9
Frame rate mode : Constant
Frame rate : 24.000 FPS
Color space : YUV
Chroma subsampling : 4:2:0
Bit depth : 8 bits
Scan type : Progressive
Bits/(Pixel*Frame) : 0.091
Stream size : 4.46 GiB (89%)
Title : Ярость / Фуриоза / Furioza (2021)
Writing library : x264 core 148 r2727 7d026e8
Encoding settings : cabac=1 / ref=4 / deblock=1:0:0 / analyse=0x3:0x111 / me=umh / subme=10 / psy=1 / psy_rd=1.00:0.00 / mixed_ref=1 / me_range=120 / chroma_me=1 / trellis=2 / 8x8dct=1 / cqm=0 / deadzone=21,11 / fast_pskip=1 / chroma_qp_offset=-2 / threads=8 / lookahead_threads=2 / sliced_threads=0 / nr=0 / decimate=1 / interlaced=0 / bluray_compat=0 / stitchable=1 / constrained_intra=0 / bframes=16 / b_pyramid=2 / b_adapt=2 / b_bias=0 / direct=3 / weightb=1 / open_gop=0 / weightp=2 / keyint=240 / keyint_min=121 / scenecut=0 / intra_refresh=0 / rc_lookahead=240 / rc=crf / mbtree=1 / crf=16.0 / qcomp=0.50 / qpmin=6 / qpmax=51 / qpstep=4 / vbv_maxrate=20000 / vbv_bufsize=25000 / crf_max=0.0 / nal_hrd=vbr / filler=0 / ip_ratio=1.40 / aq=1:0.80
Language : Polish
Default : Yes
Forced : No

Audio #1
ID : 2
Format : AC-3
Format/Info : Audio Coding 3
Format settings, Endianness : Big
Codec ID : A_AC3
Duration : 2 h 20 min
Bit rate mode : Constant
Bit rate : 448 kb/s
Channel(s) : 6 channels
Channel positions : Front: L C R, Side: L R, LFE
Sampling rate : 48.0 kHz
Frame rate : 31.250 FPS (1536 spf)
Bit depth : 16 bits
Compression mode : Lossy
Stream size : 450 MiB (9%)
Title : Dub | IYUNO-SDI Grouo по заказу Netflix
Language : Russian
Service kind : Complete Main
Default : Yes
Forced : No

Audio #2
ID : 3
Format : E-AC-3
Format/Info : Enhanced Audio Coding 3
Format settings, Endianness : Big
Codec ID : A_EAC3
Duration : 2 h 20 min
Bit rate mode : Constant
Bit rate : 128 kb/s
Channel(s) : 2 channels
Channel positions : Front: L R
Sampling rate : 48.0 kHz
Frame rate : 187.500 FPS (256 spf)
Compression mode : Lossy
Stream size : 129 MiB (3%)
Title : Polish
Language : Polish
Service kind : Complete Main
Default : No
Forced : No

Text #1
ID : 4
Format : UTF-8
Codec ID : S_TEXT/UTF8
Codec ID/Info : UTF-8 Plain Text
Duration : 2 h 12 min
Bit rate : 41 b/s
Count of elements : 1408
Stream size : 39.8 KiB (0%)
Title : Full | Netflix
Language : English
Default : No
Forced : No

Text #2
ID : 5
Format : UTF-8
Codec ID : S_TEXT/UTF8
Codec ID/Info : UTF-8 Plain Text
Duration : 2 h 18 min
Bit rate : 0 b/s
Count of elements : 34
Stream size : 840 Bytes (0%)
Title : French [Forced]
Language : French
Default : No
Forced : No

Text #3
ID : 6
Format : UTF-8
Codec ID : S_TEXT/UTF8
Codec ID/Info : UTF-8 Plain Text
Duration : 2 h 18 min
Bit rate : 44 b/s
Count of elements : 1616
Stream size : 45.4 KiB (0%)
Title : Full | Netflix
Language : French
Default : No
Forced : No

Text #4
ID : 7
Format : UTF-8
Codec ID : S_TEXT/UTF8
Codec ID/Info : UTF-8 Plain Text
Duration : 2 h 18 min
Bit rate : 45 b/s
Count of elements : 1549
Stream size : 46.3 KiB (0%)
Title : Full | Netflix | Marek Weber
Language : German
Default : No
Forced : No
Перевод: Елена Савченко
Режиссер: Олег Новиков
Звукорежиссер: Ярослав Левашов
Роли дублируют: Олег Новиков, Глеб Гаврилов, Александр Гаврилин, Алия Насырова, Сергей Пономарев, Александр Воронов, Антон Морозов, Илья Хвостиков, Татьяна Абрамова, Александр Носков

Релиз от: vitolinform
Sovetnik
Аватара пользователя
 
Раздал: 32.14 ТБ
Скачал: 13.23 ГБ
Ратио: 2488.285
Сообщения: 1913
Зарегистрирован: 13 фев 2014, 05:19
  • Торрент
Автор: Sovetnik Хэш: ---
Добавлен: 08 апр 2022, 01:17 Приватный: Нет (DHT включён)
Статус: Проверен
Размер: 5.02 ГБ (5 394 261 856 байт)
Изменил:
---
Скачали: 1464 (Раздающих: 0%)
Причина:
---
Здоровье: 100%
Сидеров: 320 Личеров: 80
Скорость раздачи: 0 байт/сек Скорость скачивания: 0 байт/сек
Последний сидер: 1 месяц 5 дней 1 час 8 минут 46 секунд назад Последний личер: 1 месяц 5 дней 1 час 8 минут 46 секунд назад
Для скачивания торрента необходимо зарегистрироваться или войти на трекер.

Форум Статистика

Сейчас этот форум просматривают: нет зарегистрированных пользователей и гости: 8

Настройки

Вернуться в Фильмы / HDTV / HD / Blu-Ray

cron
Ресурс не предоставляет электронные версии произведений, а занимается лишь коллекционированием и каталогизацией ссылок, присылаемых и публикуемых на форуме нашими читателями. Если вы являетесь правообладателем какого-либо представленного материала и не желаете чтобы ссылка на него находилась в нашем каталоге, свяжитесь с нами и мы незамедлительно удалим её. Файлы для обмена на трекере предоставлены пользователями сайта, и администрация не несёт ответственности за их содержание. Просьба не заливать файлы, защищенные авторскими правами, а также файлы нелегального содержания!
tracker_cron