Модераторы: K15, Младшие модераторы, Модераторы

Снайпер / The Sniper (Чжу Цзян) [2021, Боевик, драма, WEB-DLRip 720p / L1]

Сообщение 7Max7 » 05 апр 2022, 00:00

#777

Снайпер / The Sniper


Информация о фильме
Название: Снайпер
Оригинальное название: The Sniper
Год выхода: 2021
Выпущено: Китай / Gold Stone Film, IQiyi
Продолжительность: 01:35:00
Перевод: Любительский (одноголосый, закадровый) Виктор Береговых
Жанр: Боевик, драма

Режиссер: Чжу Цзян

В ролях: Генри Принц Мак, Ракель Сюй, Майкл Тун, Фрида Ху, Лу Цзиньхао, Чэн Тао, Чжоу Чжо, Е Синьюй, Ли Муюй, Пэй Цзясинь, Ло Чжэнхуа....

О фильме:
Во время выполнения задания снайпер Цзинь Мин (Майкл Тун) отвлекается на пленного ребенка и срывает операцию. Спустя десять лет ребенок, которого Цзинь Мин взял под крыло и назвал Цзинь Таем (Генри Принц Мак), вырастает и сам становится снайпером, как и еще одна спасенная Цзинь Мином девочка, Сяо Мэй (Фрида Ху). Во время очередного задания Цзинь Мин неожиданно попадает под подозрение, и тут пути его «детей» расходятся – Сяо Мэй безоговорочно встает на сторону «отца» и вместе с ним устраивает бойню в штабе, а находящийся «в поле» Цзинь Тай пытается их остановить....



ТРЕЙЛЕР

СЭМПЛ



Файл
Качество: WEB-DLRip 720p
Формат: MKV
Видео: MPEG-4 AVC/H.264, 3240 Кбит/сек, 1280x540
Аудио #1: Русский: AC3, 2 ch, 256 Кбит/сек
Аудио #2: Китайский: AC3, 2 ch, 192 Кбит/сек
Субтитры: русские, украинские, английские [вшитые отключаемые]

Общее
Уникальный идентификатор : 38522976702354422359019801434847200755 (0x1CFB41645F238B8FC7DA56DE5D1845F3)
Полное имя : F:1.ФИЛЬМЫ�1. ФИЛЬМЫСнайпер The Sniper (2021)Snayper The Sniper (2021) WEB-DLRip 720p.mkv
Формат : Matroska
Версия формата : Version 4
Размер файла : 2,44 Гбайт
Продолжительность : 1 ч. 35 м.
Общий поток : 3 675 Кбит/сек
Дата кодирования : UTC 2022-04-04 12:49:32
Программа кодирования : mkvmerge v66.0.0 ('Josie') 64-bit
Библиотека кодирования : libebml v1.4.2 + libmatroska v1.6.4
Авторское право : *=Z=*
Attachments : poster.jpg
Язык : und

Видео
Идентификатор : 1
Формат : AVC
Формат/Информация : Advanced Video Codec
Профиль формата : High@L4.1
Настройки формата : CABAC / 12 Ref Frames
Параметр CABAC формата : Да
Параметр RefFrames формата : 12 кадров
Идентификатор кодека : V_MPEG4/ISO/AVC
Продолжительность : 1 ч. 35 м.
Битрейт : 3 240 Кбит/сек
Ширина : 1 280 пикселей
Высота : 540 пикселей
Соотношение сторон : 2,40:1
Режим частоты кадров : Постоянный
Частота кадров : 24,000 кадра/сек
Цветовое пространство : YUV
Субдискретизация насыщенности : 4:2:0
Битовая глубина : 8 бит
Тип развёртки : Прогрессивная
Бит/(Пиксели*Кадры) : 0.195
Размер потока : 2,14 Гбайт (88%)
Заголовок : China (Gold Stone Film, IQiyi)
Библиотека кодирования : x264 core 159 r2991 1771b55
Настройки программы : cabac=1 / ref=12 / deblock=1:-3:-3 / analyse=0x3:0x133 / me=umh / subme=11 / psy=1 / psy_rd=1.00:0.00 / mixed_ref=1 / me_range=32 / chroma_me=1 / trellis=2 / 8x8dct=1 / cqm=0 / deadzone=21,18 / fast_pskip=0 / chroma_qp_offset=-2 / threads=19 / lookahead_threads=4 / sliced_threads=0 / nr=60 / decimate=0 / interlaced=0 / bluray_compat=0 / constrained_intra=0 / bframes=16 / b_pyramid=2 / b_adapt=2 / b_bias=10 / direct=3 / weightb=1 / open_gop=0 / weightp=2 / keyint=240 / keyint_min=24 / scenecut=40 / intra_refresh=0 / rc_lookahead=60 / rc=2pass / mbtree=0 / bitrate=3240 / ratetol=1.0 / qcomp=0.70 / qpmin=3 / qpmax=69 / qpstep=4 / cplxblur=20.0 / qblur=0.5 / vbv_maxrate=5000 / vbv_bufsize=4000 / nal_hrd=none / filler=0 / ip_ratio=1.40 / pb_ratio=1.30 / aq=1:0.60
Язык : Chinese
Default : Да
Forced : Нет
Цветовой диапазон : Limited
Основные цвета : BT.709
Характеристики трансфера : BT.709
Коэффициенты матрицы : BT.709

Аудио #1
Идентификатор : 2
Формат : AC-3
Формат/Информация : Audio Coding 3
Коммерческое название : Dolby Digital
Идентификатор кодека : A_AC3
Продолжительность : 1 ч. 35 м.
Вид битрейта : Постоянный
Битрейт : 256 Кбит/сек
Каналы : 2 канала
Channel layout : L R
Частота : 48,0 КГц
Частота кадров : 31,250 кадров/сек (1536 SPF)
Битовая глубина : 32 бит
Метод сжатия : С потерями
Размер потока : 174 Мбайт (7%)
Заголовок : VO (Viktor Beregovoy)
Язык : Russian
Service kind : Complete Main
Default : Да
Forced : Нет

Аудио #2
Идентификатор : 3
Формат : AC-3
Формат/Информация : Audio Coding 3
Коммерческое название : Dolby Digital
Идентификатор кодека : A_AC3
Продолжительность : 1 ч. 35 м.
Вид битрейта : Постоянный
Битрейт : 192 Кбит/сек
Каналы : 2 канала
Channel layout : L R
Частота : 48,0 КГц
Частота кадров : 31,250 кадров/сек (1536 SPF)
Метод сжатия : С потерями
Размер потока : 130 Мбайт (5%)
Заголовок : Original (Chinese)
Язык : Chinese
Service kind : Complete Main
Default : Да
Forced : Нет

Текст #1
Идентификатор : 4
Формат : ASS
Идентификатор кодека : S_TEXT/ASS
Идентификатор кодека/Информация : Advanced Sub Station Alpha
Продолжительность : 1 ч. 32 м.
Битрейт : 65 бит/сек
Count of elements : 798
Метод сжатия : Без потерь
Размер потока : 44,6 Кбайт (0%)
Язык : Russian
Default : Да
Forced : Нет

Текст #2
Идентификатор : 5
Формат : ASS
Идентификатор кодека : S_TEXT/ASS
Идентификатор кодека/Информация : Advanced Sub Station Alpha
Продолжительность : 1 ч. 32 м.
Битрейт : 65 бит/сек
Count of elements : 798
Метод сжатия : Без потерь
Размер потока : 44,3 Кбайт (0%)
Язык : Ukrainian
Default : Да
Forced : Нет

Текст #3
Идентификатор : 6
Формат : UTF-8
Идентификатор кодека : S_TEXT/UTF8
Идентификатор кодека/Информация : UTF-8 Plain Text
Продолжительность : 1 ч. 32 м.
Битрейт : 31 бит/сек
Count of elements : 962
Размер потока : 21,3 Кбайт (0%)
Язык : English
Default : Да
Forced : Нет
7Max7
Аватара пользователя
 
Раздал: 491.08 ГБ
Скачал: 4.25 ГБ
Ратио: 115.495
Сообщения: 481
Зарегистрирован: 14 фев 2014, 18:28
  • Торрент
Автор: 7Max7 Хэш: ---
Добавлен: 05 апр 2022, 00:00 Приватный: Нет (DHT включён)
Статус: Проверен
Размер: 2.44 ГБ (2 618 829 078 байт)
Изменил:
---
Скачали: 205 (Раздающих: 0%)
Причина:
---
Здоровье: 100%
Сидеров: 156 Личеров: 34
Скорость раздачи: 0 байт/сек Скорость скачивания: 0 байт/сек
Последний сидер: 1 месяц 5 дней 1 час 23 минуты 38 секунд назад Последний личер: 1 месяц 5 дней 1 час 23 минуты 38 секунд назад
Для скачивания торрента необходимо зарегистрироваться или войти на трекер.

Форум Статистика

Сейчас этот форум просматривают: нет зарегистрированных пользователей и гости: 6

Настройки

Вернуться в Фильмы / HDTV / HD / Blu-Ray

cron
Ресурс не предоставляет электронные версии произведений, а занимается лишь коллекционированием и каталогизацией ссылок, присылаемых и публикуемых на форуме нашими читателями. Если вы являетесь правообладателем какого-либо представленного материала и не желаете чтобы ссылка на него находилась в нашем каталоге, свяжитесь с нами и мы незамедлительно удалим её. Файлы для обмена на трекере предоставлены пользователями сайта, и администрация не несёт ответственности за их содержание. Просьба не заливать файлы, защищенные авторскими правами, а также файлы нелегального содержания!
tracker_cron