Модераторы: K15, Младшие модераторы, Модераторы

Обитель зла: Раккун-Сити / Resident Evil: Welcome to Raccoon City (2021) UHD BDRemux 2160p от селезень | 4K | HDR | D, A

Сообщение Zina » 12 мар 2022, 02:17

#777
Информация о фильме
Название: Обитель зла: Раккун-Сити
Оригинальное название: Resident Evil: Welcome to Raccoon City
Год выхода: 2021
Жанр: Ужасы, боевик, фантастика
Режиссер: Йоханнес Робертс
В ролях: Кая Скоделарио, Ханна Джон-Кэймен, Том Хоппер, Робби Амелл, Нил МакДонаф, Эван Джогиа, Донал Лог, Аваа Блэкуэлл, Лили Гао, Марина Мазепа, Нэйтан Дэйлз, Чад Рук, Джош Круддас, Джанет Портер



О фильме: Раккун Сити — город-призрак на Среднем Западе, который жизнь покинула вместе с фармацевтическим гигантом Umbrella. Однако корпорация не исчезла бесследно — на ее месте глубоко под землей зреет великое зло, которое вскоре вырвется на свободу. Нескольким выжившим предстоит узнать страшную правду о монструозной компании. «Обитель зла: Раккун Сити» — перезапуск зомби-франшизы, основанной на видеоигре Resident Evil.

Страна: Канада, Германия
Студия: Constantin Film, Davis Films
Продолжительность: 01:47:29
Перевод(ы):
#1: Дублированный (профессиональный) | СинеЛаб СаундМикс
#2: Авторский | Яроцкий (Kyberpunk)
#3: Авторский | Назаров


Качество: BDRemux 2160p
Видео: 3840x2160 at 23.976 fps, MPEG-H HEVC HDR, ~ 50600 kbps avg
Аудио #01: 48 kHz, E-AC3, 5.1, 384 Kbps | Дублированный | СинеЛаб СаундМикс | RUS |
Аудио #02: 48 kHz, AC3, 5.1, 384 Kbps | Дублированный | СинеЛаб СаундМикс | RUS |
Аудио #03: 48 kHz, AC3, 5.1, 448 Kbps | Авторский | Яроцкий (Kyberpunk) | RUS |
Аудио #04: 48 kHz, AC3, 5.1, 448 Kbps | Авторский | Назаров | RUS |
Аудио #05: 48 kHz, TrueHD, 7.1, 4487 Kbps | Оригинал | ENG |
Аудио #06: 48 kHz, AC3, 5.1, 640 Kbps | Оригинал | ENG |
Субтитры: Русские (Forced, 2 x full), английские, французские



General
Unique ID : 41296006656827576588156979386010412956 (0x1F11525317D48B1740DC461BF8E5A79C)
Complete name : D:VideoResident.Evil.2021.D.AVO.BDREMUX.2160p.HDR.seleZen.mkv
Format : Matroska
Format version : Version 4
File size : 43.2 GiB
Duration : 1 h 47 min
Overall bit rate mode : Variable
Overall bit rate : 57.5 Mb/s
Movie name : Resident Evil Welcome to Raccoon City 2021 from seleZen
Encoded date : UTC 2022-02-19 22:14:44
Writing application : mkvmerge v59.0.0 ('Shining Star') 64-bit
Writing library : libebml v1.4.2 + libmatroska v1.6.4

Video
ID : 1
Format : HEVC
Format/Info : High Efficiency Video Coding
Format profile : Main 10@L5.1@High
HDR format : SMPTE ST 2086, HDR10 compatible
Codec ID : V_MPEGH/ISO/HEVC
Duration : 1 h 47 min
Bit rate : 50.6 Mb/s
Width : 3 840 pixels
Height : 2 160 pixels
Display aspect ratio : 16:9
Frame rate mode : Constant
Frame rate : 23.976 (24000/1001) FPS
Color space : YUV
Chroma subsampling : 4:2:0 (Type 2)
Bit depth : 10 bits
Bits/(Pixel*Frame) : 0.255
Stream size : 38.0 GiB (88%)
Language : English
Default : Yes
Forced : No
Color range : Limited
Color primaries : BT.2020
Transfer characteristics : PQ
Matrix coefficients : BT.2020 non-constant
Mastering display color pri : Display P3
Mastering display luminance : min: 0.0001 cd/m2, max: 1000 cd/m2
Maximum Content Light Level : 748 cd/m2
Maximum Frame-Average Light : 241 cd/m2

Audio #1
ID : 2
Format : E-AC-3
Format/Info : Enhanced AC-3
Commercial name : Dolby Digital Plus
Codec ID : A_EAC3
Duration : 1 h 47 min
Bit rate mode : Constant
Bit rate : 384 kb/s
Channel(s) : 6 channels
Channel layout : L R C LFE Ls Rs
Sampling rate : 48.0 kHz
Frame rate : 31.250 FPS (1536 SPF)
Compression mode : Lossy
Stream size : 295 MiB (1%)
Title : Dub
Language : Russian
Service kind : Complete Main
Default : Yes
Forced : Yes

Audio #2
ID : 3
Format : AC-3
Format/Info : Audio Coding 3
Commercial name : Dolby Digital
Codec ID : A_AC3
Duration : 1 h 47 min
Bit rate mode : Constant
Bit rate : 384 kb/s
Channel(s) : 6 channels
Channel layout : L R C LFE Ls Rs
Sampling rate : 48.0 kHz
Frame rate : 31.250 FPS (1536 SPF)
Compression mode : Lossy
Stream size : 295 MiB (1%)
Title : Dub
Language : Russian
Service kind : Complete Main
Default : No
Forced : No

Audio #3
ID : 4
Format : AC-3
Format/Info : Audio Coding 3
Commercial name : Dolby Digital
Codec ID : A_AC3
Duration : 1 h 47 min
Bit rate mode : Constant
Bit rate : 448 kb/s
Channel(s) : 6 channels
Channel layout : L R C LFE Ls Rs
Sampling rate : 48.0 kHz
Frame rate : 31.250 FPS (1536 SPF)
Compression mode : Lossy
Stream size : 344 MiB (1%)
Title : AVO [Kyberpunk]
Language : Russian
Service kind : Complete Main
Default : No
Forced : No

Audio #4
ID : 5
Format : AC-3
Format/Info : Audio Coding 3
Commercial name : Dolby Digital
Codec ID : A_AC3
Duration : 1 h 47 min
Bit rate mode : Constant
Bit rate : 448 kb/s
Channel(s) : 6 channels
Channel layout : L R C LFE Ls Rs
Sampling rate : 48.0 kHz
Frame rate : 31.250 FPS (1536 SPF)
Compression mode : Lossy
Stream size : 344 MiB (1%)
Title : AVO [Nazarov]
Language : Russian
Service kind : Complete Main
Default : No
Forced : No

Audio #5
ID : 6
Format : MLP FBA 16-ch
Format/Info : Meridian Lossless Packing FBA with 16-channel presentation
Commercial name : Dolby TrueHD with Dolby Atmos
Codec ID : A_TRUEHD
Duration : 1 h 47 min
Bit rate mode : Variable
Bit rate : 4 487 kb/s
Maximum bit rate : 8 118 kb/s
Channel(s) : 8 channels
Channel layout : L R C LFE Ls Rs Lb Rb
Sampling rate : 48.0 kHz
Frame rate : 1 200.000 FPS (40 SPF)
Compression mode : Lossless
Stream size : 3.37 GiB (8%)
Title : Original
Language : English
Default : No
Forced : No
Number of dynamic objects : 11
Bed channel count : 1 channel
Bed channel configuration : LFE

Audio #6
ID : 7
Format : AC-3
Format/Info : Audio Coding 3
Commercial name : Dolby Digital
Codec ID : A_AC3
Duration : 1 h 47 min
Bit rate mode : Constant
Bit rate : 640 kb/s
Channel(s) : 6 channels
Channel layout : L R C LFE Ls Rs
Sampling rate : 48.0 kHz
Frame rate : 31.250 FPS (1536 SPF)
Compression mode : Lossy
Stream size : 492 MiB (1%)
Language : English
Service kind : Complete Main
Default : No
Forced : No

Text #1
ID : 8
Format : UTF-8
Codec ID : S_TEXT/UTF8
Codec ID/Info : UTF-8 Plain Text
Duration : 1 h 35 min
Bit rate : 3 b/s
Count of elements : 51
Stream size : 2.58 KiB (0%)
Title : Forced [Ekaterina.Lisitcina]
Language : Russian
Default : Yes
Forced : Yes

Text #2
ID : 9
Format : UTF-8
Codec ID : S_TEXT/UTF8
Codec ID/Info : UTF-8 Plain Text
Duration : 1 h 39 min
Bit rate : 50 b/s
Count of elements : 850
Stream size : 36.9 KiB (0%)
Title : Full [Ekaterina.Lisitcina]
Language : Russian
Default : No
Forced : No

Text #3
ID : 10
Format : UTF-8
Codec ID : S_TEXT/UTF8
Codec ID/Info : UTF-8 Plain Text
Duration : 1 h 39 min
Bit rate : 56 b/s
Count of elements : 805
Stream size : 40.9 KiB (0%)
Title : Full [SpookySUB]
Language : Russian
Default : No
Forced : No

Text #4
ID : 11
Format : UTF-8
Codec ID : S_TEXT/UTF8
Codec ID/Info : UTF-8 Plain Text
Duration : 1 h 46 min
Bit rate : 40 b/s
Count of elements : 1437
Stream size : 31.7 KiB (0%)
Title : Full
Language : English
Default : No
Forced : No

Text #5
ID : 12
Format : UTF-8
Codec ID : S_TEXT/UTF8
Codec ID/Info : UTF-8 Plain Text
Duration : 1 h 46 min
Bit rate : 44 b/s
Count of elements : 1473
Stream size : 34.5 KiB (0%)
Title : SDH
Language : English
Default : No
Forced : No

Text #6
ID : 13
Format : UTF-8
Codec ID : S_TEXT/UTF8
Codec ID/Info : UTF-8 Plain Text
Duration : 1 h 30 min
Bit rate : 1 b/s
Count of elements : 30
Stream size : 795 Bytes (0%)
Title : French (Canada)
Language : French
Default : No
Forced : No

Menu
00:00:00.000 : Глава 01
00:10:02.644 : Глава 02
00:18:14.176 : Глава 03
00:26:05.773 : Глава 04
00:33:51.071 : Глава 05
00:38:29.599 : Глава 06
00:45:53.834 : Глава 07
00:51:21.245 : Глава 08
00:54:49.286 : Глава 09
01:00:29.751 : Глава 10
01:05:52.991 : Глава 11
01:10:04.075 : Глава 12
01:13:17.810 : Глава 13
01:14:56.325 : Глава 14
01:18:43.344 : Глава 15
01:32:31.671 : Глава 16
01:40:54.048 : Глава 17


Релиз:

Zina
Аватара пользователя
 
Раздал: 0 байт
Скачал: 0 байт
Ратио: Inf.
Сообщения: 408
Зарегистрирован: 01 июл 2014, 16:52
  • Торрент
Автор: Zina Хэш: ---
Добавлен: 12 мар 2022, 02:17 Приватный: Нет (DHT включён)
Статус: Проверен
Размер: 43.16 ГБ (46 342 254 963 байт)
Изменил:
---
Скачали: 163 (Раздающих: 0%)
Причина:
---
Здоровье: 100%
Сидеров: 20 Личеров: 3
Скорость раздачи: 0 байт/сек Скорость скачивания: 0 байт/сек
Последний сидер: 1 месяц 5 дней 1 час 56 минут 23 секунды назад Последний личер: 1 месяц 5 дней 1 час 56 минут 23 секунды назад
Для скачивания торрента необходимо зарегистрироваться или войти на трекер.

Форум Статистика

Сейчас этот форум просматривают: нет зарегистрированных пользователей и гости: 5

Настройки

Вернуться в Фильмы / HDTV / HD / Blu-Ray

cron
Ресурс не предоставляет электронные версии произведений, а занимается лишь коллекционированием и каталогизацией ссылок, присылаемых и публикуемых на форуме нашими читателями. Если вы являетесь правообладателем какого-либо представленного материала и не желаете чтобы ссылка на него находилась в нашем каталоге, свяжитесь с нами и мы незамедлительно удалим её. Файлы для обмена на трекере предоставлены пользователями сайта, и администрация не несёт ответственности за их содержание. Просьба не заливать файлы, защищенные авторскими правами, а также файлы нелегального содержания!
tracker_cron