Модераторы: K15, Младшие модераторы, Модераторы

Чёрный дождь / Kuroi Ame (1989) BDRip 720p от msltel | L1

Сообщение 7Max7 » 16 янв 2021, 21:07

#777

Название: Чёрный дождь
Оригинальное название: Kuroi Ame
Год выпуска: 1989
Страна: Япония
Продолжительность: 02:02:27
Жанр: драма, история

Режиссер: Сехэй Имамура

В ролях:
Ёсико Танака, Кадзуо Китамура, Эцуко Итихара, Сёити Одзава, Норихэй Мики, Хисако Хара, Кеисуке Ишида, Масато Ямада, Тамаки Сава, Акидзи Кобаяси, Кадзуко Сиракава

О фильме:
Атомная бомба перевернула и искалечила судьбы всех людей. Не говоря уже о чисто физических страданиях, она изменила и их психологию. Через пять лет после взрыва всё выглядит внешне спокойно в деревне близ Хиросимы: женщины обрабатывают рисовые поля, убирают урожай, сплетничают, мужчины удят рыбу. Но те, кто стал жертвой атомной бомбардировки, больше не чувствуют себя равноправными членами общества. К ним относятся с недоверием, их сторонятся. Кое-кто бросает им упрёк, что они попросту прикрываются лучевой болезнью, чтобы отлынивать от работы; поражённых радиацией девушек не хотят брать замуж, не помогает даже справка о состоянии здоровья, которая лишь вызывает подозрения у женихов... Экранизация одноимённого романа Масудзи Ибусэ.



Качество: BDRip 720p
Формат: MKV
Видео: MPEG-4 AVC, 6332 Кбит/с, 1280x690, 23.976 кадр/с
Аудио 1: русский, AC3, 192 kbps, 2 ch, 48 kHz [закадровый одноголосый]
Аудио 2: японский, DTS, 768 kbps, 1 ch, 48 kHz [оригинал]
Субтитры 1: русские (SRT)
Субтитры 2: английские (SRT)
Общее
Уникальный идентификатор : 253687628779070100041710109435213792451 (0xBEDA75C7B6644C3187195C70A11644C3)
Полное имя : D:VideoЧёрный дождь.1989.BDRip 720p msltel.mkv
Формат : Matroska
Версия формата : Version 4
Размер файла : 6,24 Гбайт
Продолжительность : 2 ч. 2 м.
Общий поток : 7 294 Кбит/сек
Название фильма : Чёрный дождь.1989.BDRip msltel
Дата кодирования : UTC 2021-01-04 02:53:57
Программа кодирования : mkvmerge v8.2.0 ('World of Adventure') 64bit
Библиотека кодирования : libebml v1.3.1 + libmatroska v1.4.2

Видео
Идентификатор : 1
Формат : AVC
Формат/Информация : Advanced Video Codec
Профиль формата : High@L4.1
Настройки формата : CABAC / 9 Ref Frames
Параметр CABAC формата : Да
Параметр RefFrames формата : 9 кадров
Идентификатор кодека : V_MPEG4/ISO/AVC
Продолжительность : 2 ч. 2 м.
Битрейт : 6 332 Кбит/сек
Ширина : 1 280 пикселей
Высота : 690 пикселей
Соотношение сторон : 1,85:1
Режим частоты кадров : Постоянный
Частота кадров : 23,976 (24000/1001) кадра/сек
Цветовое пространство : YUV
Субдискретизация насыщенности : 4:2:0
Битовая глубина : 8 бит
Тип развёртки : Прогрессивная
Бит/(Пиксели*Кадры) : 0.299
Размер потока : 5,42 Гбайт (87%)
Библиотека кодирования : x264 core 161 r3018 db0d417
Настройки программы : cabac=1 / ref=9 / deblock=1:-3:-3 / analyse=0x3:0x113 / me=umh / subme=10 / psy=1 / psy_rd=1.00:0.00 / mixed_ref=1 / me_range=32 / chroma_me=1 / trellis=2 / 8x8dct=1 / cqm=0 / deadzone=21,11 / fast_pskip=0 / chroma_qp_offset=-2 / threads=12 / lookahead_threads=3 / sliced_threads=0 / nr=0 / decimate=0 / interlaced=0 / bluray_compat=0 / constrained_intra=0 / bframes=13 / b_pyramid=2 / b_adapt=2 / b_bias=0 / direct=1 / weightb=1 / open_gop=0 / weightp=2 / keyint=230 / keyint_min=23 / scenecut=40 / intra_refresh=0 / rc_lookahead=40 / rc=crf / mbtree=0 / crf=17.0 / qcomp=0.60 / qpmin=0 / qpmax=69 / qpstep=4 / vbv_maxrate=62500 / vbv_bufsize=78125 / crf_max=0.0 / nal_hrd=none / filler=0 / ip_ratio=1.40 / pb_ratio=1.30 / aq=2:1.00
Язык : Japanese
Default : Да
Forced : Нет

Аудио #1
Идентификатор : 2
Формат : AC-3
Формат/Информация : Audio Coding 3
Коммерческое название : Dolby Digital
Идентификатор кодека : A_AC3
Продолжительность : 2 ч. 2 м.
Вид битрейта : Постоянный
Битрейт : 192 Кбит/сек
Каналы : 2 канала
Channel layout : L R
Частота : 48,0 КГц
Частота кадров : 31,250 кадров/сек (1536 SPF)
Метод сжатия : С потерями
Размер потока : 168 Мбайт (3%)
Заголовок : VO
Язык : Russian
Service kind : Complete Main
Default : Да
Forced : Нет

Аудио #2
Идентификатор : 3
Формат : DTS
Формат/Информация : Digital Theater Systems
Идентификатор кодека : A_DTS
Продолжительность : 2 ч. 2 м.
Вид битрейта : Постоянный
Битрейт : 768 Кбит/сек
Каналы : 1 канал
Channel layout : C
Частота : 48,0 КГц
Частота кадров : 93,750 кадра/сек (512 SPF)
Битовая глубина : 24 бит
Метод сжатия : С потерями
Размер потока : 673 Мбайт (11%)
Заголовок : оригинал
Язык : Japanese
Default : Нет
Forced : Нет

Текст #1
Идентификатор : 4
Формат : UTF-8
Идентификатор кодека : S_TEXT/UTF8
Идентификатор кодека/Информация : UTF-8 Plain Text
Продолжительность : 1 ч. 59 м.
Битрейт : 56 бит/сек
Count of elements : 1200
Размер потока : 49,1 Кбайт (0%)
Заголовок : русские
Язык : Russian
Default : Нет
Forced : Нет

Текст #2
Идентификатор : 5
Формат : UTF-8
Идентификатор кодека : S_TEXT/UTF8
Идентификатор кодека/Информация : UTF-8 Plain Text
Продолжительность : 2 ч. 2 м.
Битрейт : 50 бит/сек
Count of elements : 1257
Размер потока : 45,2 Кбайт (0%)
Заголовок : английские
Язык : English
Default : Нет
Forced : Нет

7Max7
Аватара пользователя
 
Раздал: 491.04 ГБ
Скачал: 3 ГБ
Ратио: 163.468
Сообщения: 413
Зарегистрирован: 14 фев 2014, 18:28
  • Торрент
Автор: 7Max7 Хэш: ---
Добавлен: 16 янв 2021, 21:07 Приватный: Нет (DHT включён)
Статус: Проверен
Размер: 6.24 ГБ (6 699 035 500 байт)
Изменил:
---
Скачали: 82 (Раздающих: 0%)
Причина:
---
Здоровье: 100%
Сидеров: 7 Личеров: 0
Скорость раздачи: 0 байт/сек Скорость скачивания: 0 байт/сек
Последний сидер: 2 месяца 21 день 6 минут 45 секунд назад Последний личер: Нет
Для скачивания торрента необходимо зарегистрироваться или войти на трекер.

Форум Статистика

Кто сейчас на конференции

Сейчас этот форум просматривают: нет зарегистрированных пользователей и гости: 2

  • Похожие торренты
    Ответы
    Просмотры
    Последнее сообщение

Настройки

Вернуться в Фильмы / HDTV / HD / Blu-Ray

cron
Ресурс не предоставляет электронные версии произведений, а занимается лишь коллекционированием и каталогизацией ссылок, присылаемых и публикуемых на форуме нашими читателями. Если вы являетесь правообладателем какого-либо представленного материала и не желаете чтобы ссылка на него находилась в нашем каталоге, свяжитесь с нами и мы незамедлительно удалим её. Файлы для обмена на трекере предоставлены пользователями сайта, и администрация не несёт ответственности за их содержание. Просьба не заливать файлы, защищенные авторскими правами, а также файлы нелегального содержания!