Модераторы: K15, Младшие модераторы, Модераторы

Ограбление с ограничениями / Die Goldfische / The Goldfish (2019) BDRip 720p от ELEKTRI4KA | iTunes

Сообщение Sovetnik » 31 дек 2020, 22:13

#777

Информация о фильме
Название: Ограбление с ограничениями
Оригинальное название: Die Goldfische / The Goldfish
Год выхода: 2019
Выпущено: Германия
Студия: SevenPictures Film, Deutsche Columbia Pictures Film Produktion, Wiedemann & Berg Filmproduktion
Продолжительность: 01:47:00
Озвучивание: Дублированный | iTunes
Жанр: комедия

Режиссер: Алиреза Голафшан

В ролях:
Том Шиллинг, Клаас Хойфер-Умлауф, Лиза Биттер, Сабрина Дитль, Кристиан Аммермюллер, Пауль Дикхаут, Михаэль Кранц, Штефан Мерки, Мария Хаппель, Йелла Хаазе

О фильме:
После серьезной аварии новые жизненные обстоятельства вынуждают еще недавно успешного банкира Оливера к реализации дерзкого преступного плана. Ему нужно доставить в Швейцарию большую сумму чёрных денег, а его помощниками и прикрытием в этом авантюрном путешествии становится команда весьма необычных сотрудников - людей с ограниченными возможностями и безграничным чувством юмора.



Файл
Формат: MKV
Качество: BDRip 720p
Видео: x264, 7090 Kbit/s, 1280x536, 25.000 fps
Аудио 1: 48 kHz, AC3 Dolby Digital, 3/2 (L, C, R, l, r) + LFE ch, ~384 kbps | русский
Аудио 2: 48 kHz, AC3 Dolby Digital, 3/2 (L, C, R, l, r) + LFE ch, ~640 kbps | немецкий
Субтитры: нет
Дополнительно: Сохранены оригинальные чаптеры.
Die.Goldfische.2019.D.BDRip.720p.ELEKTRI4KA.mkv
Format : Matroska
Format version : Version 4
File size : 6.07 GiB
Duration : 1 h 47 min
Overall bit rate : 8 116 kb/s
Movie name : Die Goldfische (2019) ELEKTRI4KA
Encoded date : UTC 2020-12-08 20:57:18
Writing application : mkvmerge v51.0.0 ('I Wish') 64-bit
Writing library : libebml v1.4.0 + libmatroska v1.6.2

Video
ID : 1
Format : AVC
Format/Info : Advanced Video Codec
Format profile : High@L4.1
Format settings : CABAC / 12 Ref Frames
Format settings, CABAC : Yes
Format settings, Reference frames : 12 frames
Codec ID : V_MPEG4/ISO/AVC
Duration : 1 h 47 min
Bit rate : 7 090 kb/s
Width : 1 280 pixels
Height : 536 pixels
Display aspect ratio : 2.40:1
Frame rate mode : Constant
Frame rate : 25.000 FPS
Color space : YUV
Chroma subsampling : 4:2:0
Bit depth : 8 bits
Scan type : Progressive
Bits/(Pixel*Frame) : 0.413
Stream size : 5.30 GiB (87%)
Title : ELEKTRI4KA
Writing library : x264 core 158 r2984+49 6932f4a t_mod_New [0-bit@all X86_64]
Encoding settings : cabac=1 / ref=12 / deblock=1:-3:-3 / analyse=0x3:0x133 / me=umh / subme=10 / psy=1 / fade_compensate=0.00 / psy_rd=1.02:0.00 / mixed_ref=1 / me_range=32 / chroma_me=1 / trellis=2 / 8x8dct=1 / cqm=0 / deadzone=21, 11 / fast_pskip=0 / chroma_qp_offset=-2 / threads=17 / lookahead_threads=2 / sliced_threads=0 / nr=0 / decimate=0 / interlaced=0 / bluray_compat=0 / constrained_intra=0 / fgo=0 / bframes=8 / b_pyramid=2 / b_adapt=2 / b_bias=0 / direct=3 / weightb=1 / open_gop=0 / weightp=2 / keyint=250 / keyint_min=25 / scenecut=40 / intra_refresh=0 / rc_lookahead=60 / rc=crf / mbtree=0 / crf=14.1000 / qcomp=0.65 / qpmin=0:0:0 / qpmax=69:69:69 / qpstep=4 / vbv_maxrate=62500 / vbv_bufsize=78125 / crf_max=0.0 / nal_hrd=none / filler=0 / ip_ratio=1.40 / pb_ratio=1.30 / aq=3:0.90 / aq-sensitivity=10.00 / aq-factor=1.00:1.00:1.00 / aq2=0 / aq3=0
Language : German
Default : Yes
Forced : No
Color range : Limited
Color primaries : BT.709
Transfer characteristics : BT.709
Matrix coefficients : BT.709

Audio #1
ID : 2
Format : AC-3
Format/Info : Audio Coding 3
Commercial name : Dolby Digital
Codec ID : A_AC3
Duration : 1 h 46 min
Bit rate mode : Constant
Bit rate : 384 kb/s
Channel(s) : 6 channels
Channel layout : L R C LFE Ls Rs
Sampling rate : 48.0 kHz
Frame rate : 31.250 FPS (1536 SPF)
Compression mode : Lossy
Stream size : 294 MiB (5%)
Title : iTunes (5.1) - ELEKTRI4KA
Language : Russian
Service kind : Complete Main
Default : Yes
Forced : No

Audio #2
ID : 3
Format : AC-3
Format/Info : Audio Coding 3
Commercial name : Dolby Digital
Codec ID : A_AC3
Duration : 1 h 47 min
Bit rate mode : Constant
Bit rate : 640 kb/s
Channel(s) : 6 channels
Channel layout : L R C LFE Ls Rs
Sampling rate : 48.0 kHz
Frame rate : 31.250 FPS (1536 SPF)
Compression mode : Lossy
Stream size : 490 MiB (8%)
Language : German
Service kind : Complete Main
Default : No
Forced : No

Menu
00:00:00.000 : :Chapter 01
00:05:19.760 : :Chapter 02
00:13:22.640 : :Chapter 03
00:22:13.360 : :Chapter 04
00:27:00.760 : :Chapter 05
00:34:09.520 : :Chapter 06
00:38:43.200 : :Chapter 07
00:47:33.440 : :Chapter 08
00:55:04.880 : :Chapter 09
01:03:07.600 : :Chapter 10
01:09:13.240 : :Chapter 11
01:17:25.760 : :Chapter 12
01:22:44.560 : :Chapter 13
01:27:18.120 : :Chapter 14
01:31:25.200 : :Chapter 15
01:37:30.880 : :Chapter 16




Релиз группы
Sovetnik
Аватара пользователя
 
Раздал: 32.13 ТБ
Скачал: 13.11 ГБ
Ратио: 2510.256
Сообщения: 1873
Зарегистрирован: 13 фев 2014, 05:19
  • Торрент
Автор: Sovetnik Хэш: ---
Добавлен: 31 дек 2020, 22:13 Приватный: Нет (DHT включён)
Статус: Проверен
Размер: 6.07 ГБ (6 514 067 562 байт)
Изменил:
---
Скачали: 2003 (Раздающих: 0%)
Причина:
---
Здоровье: 100%
Сидеров: 45 Личеров: 2
Скорость раздачи: 0 байт/сек Скорость скачивания: 0 байт/сек
Последний сидер: 2 месяца 2 дня 6 часов 57 минут 35 секунд назад Последний личер: 2 месяца 2 дня 6 часов 57 минут 35 секунд назад
Для скачивания торрента необходимо зарегистрироваться или войти на трекер.

Форум Статистика

Кто сейчас на конференции

Сейчас этот форум просматривают: нет зарегистрированных пользователей и гости: 5

  • Похожие торренты
    Ответы
    Просмотры
    Последнее сообщение

Настройки

Вернуться в Фильмы / HDTV / HD / Blu-Ray

cron
Ресурс не предоставляет электронные версии произведений, а занимается лишь коллекционированием и каталогизацией ссылок, присылаемых и публикуемых на форуме нашими читателями. Если вы являетесь правообладателем какого-либо представленного материала и не желаете чтобы ссылка на него находилась в нашем каталоге, свяжитесь с нами и мы незамедлительно удалим её. Файлы для обмена на трекере предоставлены пользователями сайта, и администрация не несёт ответственности за их содержание. Просьба не заливать файлы, защищенные авторскими правами, а также файлы нелегального содержания!