Модераторы: K15, Младшие модераторы, Модераторы

Трилогия: Люди в черном 1, 2, 3 / Trilogy: Men in Black I, II, III (Барри Зонненфельд / Barry Sonnenfeld) (1997, 2002, 2012 гг., фантастика, боевик, комедия, BDRip) Dub + Original + Sub [Rus]

Сообщение 7Max7 » 26 ноя 2020, 18:08

Трилогия: Люди в чёрном 1,2,3 / Trilogy: Men in Black 1,2,3



Люди в черном / Men in Black
«Они защищают Землю от отбросов Вселенной»
#777Год выпуска: 1997
Страна: США
Жанр: Фантастика, Комедия, Боевик
Продолжительность: 01:37:58
Перевод: Профессиональный (полное дублирование) |Лицензия|
Субтитры: русские (полные, внешние, srt)
Оригинальная дорожка: Английский
Режиссёр: Бэрри Зонненфелд / Barry Sonnenfeld
В ролях: Томми Ли Джонс (K), Уилл Смит (J / James Edwards), Винсент Д’Онофрио (Edgar), Линда Фиорентино (Laurel Weaver), Рип Торн (Zed), Тони Шэлуб (Jeebs), Шиван Фэллон (Beatrice), Майк Нассбаум (Gentle Rosenburg), Джон Грайз (Van Driver), Фредрик Лене (INS Agent Janus), Серхио Кальдерон (José), Карел Стрёйкен (Arquillian)
Группа
желает всем приятного просмотра! Описание: Кей и Джей - агенты совершенно секретного правительственного ведомства, осуществляющего надзор за обосновавшимися на Земле существами из иных миров. Они - это последний и единственный рубеж обороны Земли от отбросов Вселенной. Их работа секретна, их оружие совершенно, им нет равных, они не оставляют следов. Они - это "Люди в черном".
Размер: 1/6 DVD
Исходник: Blu-ray CEE 1080p
Качество: BDRip
Формат: AVI
Видео: 656x352 (1.86:1), 23.976 fps, XviD MPEG-4 ~926 kbps avg, 0.17 bit/pixel
Аудио: 48 kHz, MPEG Layer 3, 2 ch, ~128.00 kbps avg| Rus
Аудио#2: 48 kHz, MPEG Layer 3, 2 ch, ~128.00 kbps avg | Eng (Отдельно)
Общее
Общее
Полное имя : D:\Торренты\Men in Black I, II, III _R.G Torrents.Ru_Rutracker.org\Men in black I_1997_R.G Torrents.Ru_Rutracker.org\Men in black I_1997_R.G Torrents.Ru_Rutracker.org.avi
Формат : AVI
Формат/Информация : Audio Video Interleave
Размер файла : 746 Мбайт
Продолжительность : 1 ч. 37 м.
Общий поток : 1064 Кбит/сек
Программа кодирования : VirtualDubModRus 1.5.10.2 (build 2542/release)
Библиотека кодирования : VirtualDubMod build 2542/release
Видео
Идентификатор : 0
Формат : MPEG-4 Visual
Профиль формата : Advanced Simple@L5
Параметр BVOP формата : 2
Параметр QPel формата : Нет
Параметр GMC формата : Без точки перехода
Параметр матрицы формата : Выборочная
Режим смешивания : Сжатый битовый поток
Идентификатор кодека : XVID
Идентификатор кодека/Подсказка : XviD
Продолжительность : 1 ч. 37 м.
Битрейт : 927 Кбит/сек
Ширина : 656 пикселей
Высота : 352 пикселя
Соотношение сторон : 1,864
Частота кадров : 23,976 кадра/сек
Цветовое пространство : YUV
Субдискретизация насыщенности : 4:2:0
Битовая глубина : 8 бит
Тип развёртки : Прогрессивная
Метод сжатия : С потерями
Бит/(Пиксели*Кадры) : 0.167
Размер потока : 650 Мбайт (87%)
Библиотека кодирования : XviD 64
Аудио
Идентификатор : 1
Формат : MPEG Audio
Версия формата : Version 1
Профиль формата : Layer 3
Режим : Joint stereo
Идентификатор кодека : 55
Идентификатор кодека/Подсказка : MP3
Продолжительность : 1 ч. 37 м.
Вид битрейта : Постоянный
Битрейт : 128 Кбит/сек
Каналы : 2 канала
Частота : 48,0 КГц
Метод сжатия : С потерями
Размер потока : 89,7 Мбайт (12%)
Выравнивание : Соединение по промежуткам
Продолжительность промежутка : 42 мс. (1,00 видеокадр)
Время предзагрузки промежутка : 504 мс.
Библиотека кодирования : LAME3.99
Настройки программы : -m j -V 4 -q 2 -lowpass 17 -b 128
Люди в черном 2 / Men in black 2
«Хорошие парни носят чёрное»
#777Год выпуска: 2002
Страна: США
Жанр: Фантастика, боевик, комедия
Продолжительность: 01:28:08
Перевод: Профессиональный (полное дублирование) |Лицензия|
Субтитры: русские (полные, внешние, srt)
Оригинальная дорожка: Английский
Режиссёр: Барри Зонненфельд / Barry Sonnenfeld
В ролях: Уилл Смит, Лара Флинн Бойл, Томми Ли Джонс, Рип Торн, Джонни Ноксвил, Розарио Доусон, Тони Шэлуб, Патрик Варбертон, Джек Келер, Дэвид Кросс, Коломба Якобсен-Дерстин, Питер Спеллос, Майкл Ривкин, Майкл Бэйли Смит, Ленни Венито, Ховард Шпигель, Джей Джонстон, Джоэль МакКиннон Миллер, Дерек Сесил, Шон Раус, Кевин Коттлир, Марти Белафски, Рик Бэйкер, Марта Стюарт, Майкл Джексон, Сид Хиллман, Том Уайтнайт, Ник Кэннон, Андре Блэр, Джереми Ховард, Мэри Стейн, Мартин Клеббэ, Джон Александр, Денис Чешир, Эрни Грюнвольд, Хлоя Сонненфельд, Джон Эндрю Бертон мл., Уильям Э. Джексон, Даг Джонс, Питер Грейвз, Линда Ким, Пейдж Брукс, Стефани Кемп, Кевин Гревье, Сонни Типтон
Группа
желает всем приятного просмотра! Описание:«Люди в черном 2» продолжает рассказ о приключениях двух элитных полицейских — агента Кея и агента Джея среди инопланетян. Со времени их предыдущих похождений прошло четыре года.
Все эти годы агент Кей вел размеренный образ жизни, в то время как агент Джей продолжал бесстрашно трудиться в рядах самой секретной организации в мире. Расследуя самое обычное дело, агент Джей натыкается на следы дьявольски изощренного заговора, задуманного Серлиной, злобным монстром, обитающим на Земле в образе сексуальнейшей модели.
Когда события принимают угрожающий оборот, агенту Джею приходится обратиться за помощью к своему бывшему напарнику, который мирно трудится в Почтовом Департаменте. За короткое время агенту Джею надо убедить агента Кея помочь ему — ведь только он может помочь спасти Землю от порабощения и уничтожения.
Размер: 1/6 DVD
Исходник:Blu-ray CEE 1080p
Качество: BDRip
Формат: AVI
Видео: 656x352 (1.86:1), 23.976 fps, XviD MPEG-4 ~1045 kbps avg, 0.19 bit/pixel
Аудио: 48 kHz, MPEG Layer 3, 2 ch, ~128.00 kbps avg | Rus
Аудио#2: 48 kHz, MPEG Layer 3, 2 ch, ~128.00 kbps avg | Eng (Отдельно)
Общее
Общее
Полное имя : D:\Торренты\Men in Black I, II, III _R.G Torrents.Ru_Rutracker.org\Men in Black II_2002_R.G Torrents.Ru_Rutracker.org\Men in Black II_2002_R.G Torrents.Ru_Rutracker.org.avi
Формат : AVI
Формат/Информация : Audio Video Interleave
Размер файла : 746 Мбайт
Продолжительность : 1 ч. 28 м.
Общий поток : 1183 Кбит/сек
Программа кодирования : VirtualDubModRus 1.5.10.2 (build 2542/release)
Библиотека кодирования : VirtualDubMod build 2542/release
Видео
Идентификатор : 0
Формат : MPEG-4 Visual
Профиль формата : Advanced Simple@L5
Параметр BVOP формата : 2
Параметр QPel формата : Нет
Параметр GMC формата : Без точки перехода
Параметр матрицы формата : Выборочная
Режим смешивания : Сжатый битовый поток
Идентификатор кодека : XVID
Идентификатор кодека/Подсказка : XviD
Продолжительность : 1 ч. 28 м.
Битрейт : 1046 Кбит/сек
Ширина : 656 пикселей
Высота : 352 пикселя
Соотношение сторон : 1,864
Частота кадров : 23,976 кадра/сек
Цветовое пространство : YUV
Субдискретизация насыщенности : 4:2:0
Битовая глубина : 8 бит
Тип развёртки : Прогрессивная
Метод сжатия : С потерями
Бит/(Пиксели*Кадры) : 0.189
Размер потока : 659 Мбайт (88%)
Библиотека кодирования : XviD 64
Аудио
Идентификатор : 1
Формат : MPEG Audio
Версия формата : Version 1
Профиль формата : Layer 3
Режим : Joint stereo
Расширение режима : MS Stereo
Идентификатор кодека : 55
Идентификатор кодека/Подсказка : MP3
Продолжительность : 1 ч. 28 м.
Вид битрейта : Постоянный
Битрейт : 128 Кбит/сек
Каналы : 2 канала
Частота : 48,0 КГц
Метод сжатия : С потерями
Размер потока : 80,7 Мбайт (11%)
Выравнивание : Соединение по промежуткам
Продолжительность промежутка : 42 мс. (1,00 видеокадр)
Время предзагрузки промежутка : 504 мс.
Библиотека кодирования : LAME3.99
Настройки программы : -m j -V 4 -q 2 -lowpass 17 -b 128
Люди в чёрном 3 / Men in Black 3
««Вперёд в прошлое»»
#777Год выпуска: 2012
Страна: США
Жанр: Фантастика, боевик, комедия
Продолжительность: 01:45:50
Перевод: Профессиональный (полное дублирование) |Лицензия|
Субтитры: русские (полные, внешние, srt)
Оригинальная дорожка: Английский
Режиссёр: Барри Зонненфельд / Barry Sonnenfeld
В ролях: Уилл Смит (Agent J), Джош Бролин (Young Agent K), Томми Ли Джонс (Agent K), Джемейн Клемент (Boris The Animal), Майкл Стулбарг (Griffin), Эмма Томпсон (Agent O), Элис Ив (Young Agent O), Майк Колтер (Colonel), Билл Хэйдер (Andy Warhol), Майкл Чернус (Jeffrey Price), Николь Шерзингер (Boris's Girlfriend), Дэвид Раш (Agent X). и др.
Группа
желает всем приятного просмотра! Описание: Агент Джей узнает, что никакого защитного галактического щита, способного отразить иноземный удар, не существует. Агент Кей не построил его, потому что был убит в 1969 году. Агент Джей должен совершить путешествие во времени, чтобы спасти Землю и жизнь напарника.
Размер: 1/6 DVD
Исходник:Blu-ray CEE 1080p
Автор рипа: Menen
Качество: BDRip
Формат: AVI
Видео: 656x352 (1.86:1), 23.976 fps, XviD build 65 ~846 kbps avg, 0.15 bit/pixel
Аудио: 48 kHz, MPEG Layer 3, 2 ch, ~128.00 kbps avg | Rus
Аудио#2: 48 kHz, MPEG Layer 3, 2 ch, ~128.00 kbps avg | Eng (Отдельно)
Общее
Общее
Полное имя : D:\Торренты\Men in Black I, II, III _R.G Torrents.Ru_Rutracker.org\Men in Black III_2012_R.G Torrents.Ru_Rutracker.org\Men in Black III_2012_R.G Torrents.Ru_Rutracker.org.avi
Формат : AVI
Формат/Информация : Audio Video Interleave
Размер файла : 745 Мбайт
Продолжительность : 1 ч. 45 м.
Общий поток : 984 Кбит/сек
Название фильма : Ludi_v_chernom_3_2012_BDRip_745
Режиссёр : Menen
Программа кодирования : VirtualDubModRus 1.5.10.2 (build 2542/release)
Библиотека кодирования : VirtualDubMod build 2542/release
Видео
Идентификатор : 0
Формат : MPEG-4 Visual
Профиль формата : Advanced Simple@L5
Параметр BVOP формата : 1
Параметр QPel формата : Нет
Параметр GMC формата : Без точки перехода
Параметр матрицы формата : Выборочная
Идентификатор кодека : XVID
Идентификатор кодека/Подсказка : XviD
Продолжительность : 1 ч. 45 м.
Битрейт : 847 Кбит/сек
Ширина : 656 пикселей
Высота : 352 пикселя
Соотношение сторон : 1,864
Частота кадров : 23,976 кадра/сек
Цветовое пространство : YUV
Субдискретизация насыщенности : 4:2:0
Битовая глубина : 8 бит
Тип развёртки : Прогрессивная
Метод сжатия : С потерями
Бит/(Пиксели*Кадры) : 0.153
Размер потока : 641 Мбайт (86%)
Библиотека кодирования : XviD 65
Аудио
Идентификатор : 1
Формат : MPEG Audio
Версия формата : Version 1
Профиль формата : Layer 3
Режим : Joint stereo
Расширение режима : MS Stereo
Идентификатор кодека : 55
Идентификатор кодека/Подсказка : MP3
Продолжительность : 1 ч. 45 м.
Вид битрейта : Постоянный
Битрейт : 128 Кбит/сек
Каналы : 2 канала
Частота : 48,0 КГц
Метод сжатия : С потерями
Размер потока : 96,9 Мбайт (13%)
Выравнивание : Соединение по промежуткам
Продолжительность промежутка : 42 мс. (1,00 видеокадр)
Время предзагрузки промежутка : 504 мс.
Библиотека кодирования : LAME3.99
Настройки программы : -m j -V 4 -q 2 -lowpass 17 -b 128
7Max7
Аватара пользователя
 
Раздал: 491.04 ГБ
Скачал: 3 ГБ
Ратио: 163.468
Сообщения: 413
Зарегистрирован: 14 фев 2014, 18:28
  • Торрент
Автор: 7Max7 Хэш: ---
Добавлен: 26 ноя 2020, 18:08 Приватный: Нет (DHT включён)
Статус: Проверен
Размер: 2.45 ГБ (2 626 194 103 байт)
Изменил:
---
Скачали: 0 (Раздающих: 0%)
Причина:
---
Здоровье: 100%
Сидеров: 32 Личеров: 11
Скорость раздачи: 0 байт/сек Скорость скачивания: 0 байт/сек
Последний сидер: 2 месяца 16 дней 5 часов 29 минут 52 секунды назад Последний личер: 2 месяца 16 дней 5 часов 29 минут 52 секунды назад
Для скачивания торрента необходимо зарегистрироваться или войти на трекер.

Форум Статистика

Кто сейчас на конференции

Сейчас этот форум просматривают: нет зарегистрированных пользователей и гости: 3

  • Похожие торренты
    Ответы
    Просмотры
    Последнее сообщение

Настройки

Вернуться в Фильмы / HDTV / HD / Blu-Ray

cron
Ресурс не предоставляет электронные версии произведений, а занимается лишь коллекционированием и каталогизацией ссылок, присылаемых и публикуемых на форуме нашими читателями. Если вы являетесь правообладателем какого-либо представленного материала и не желаете чтобы ссылка на него находилась в нашем каталоге, свяжитесь с нами и мы незамедлительно удалим её. Файлы для обмена на трекере предоставлены пользователями сайта, и администрация не несёт ответственности за их содержание. Просьба не заливать файлы, защищенные авторскими правами, а также файлы нелегального содержания!
tracker_cron