Модераторы: K15, Модераторы, Младшие модераторы

В электрическом тумане / In the Electric Mist (2009) BDRip 720p от k.e.n & MegaPeer | P

Сообщение Zina » 14 ноя 2020, 23:39

В электрическом тумане / In the Electric Mist


#777

Информация о фильме
Название: В электрическом тумане
Оригинальное название: In the Electric Mist
Год выхода: 2009
Страна: Франция, США
Студия: Ithaca Pictures, Little Bear, TF1 International
Продолжительность: 01:57:04
Перевод: Профессиональный (многоголосый, закадровый) R5 от «CP-Digital»
Жанр: триллер, драма, криминал, детектив

Режиссер: Бертран Тавернье

В ролях:
Томми Ли Джонс, Джон Гудмен, Питер Сарсгаард, Мэри Стинберген, Келли Макдоналд, Жустина Мачадо, Нед Битти, Джеймс Гэммон, Прюитт Тэйлор Винс, Левон Хельм

О фильме:
Детектив Дэйв Робишо расследует убийство молодых девушек и убийство чернокожего парня 40 летней давности. Все эти преступления он пытается связать с местным гангстером. Во время расследования ему, мистическим образом, является солдат-конфедерат, участник гражданской войны в США…



Файл
Контейнер: MKV
Качество: BDRip 720p
Видео: AVC/H.264, 1280x546, 23.976 fps, 4 889 Kbps (0.292 bit/pixel)
Звук: AC3, 48 KHz, 6 ch, 448 Kbps
Субтитры: русские

Релиз от: &

x264 [info]: frame I:1021 Avg QP:15.37 size:100905
x264 [info]: frame P:34316 Avg QP:17.30 size: 43977
x264 [info]: frame B:133407 Avg QP:18.84 size: 20131

Format : Matroska
Format version : Version 2
File size : 4.37 GiB
Duration : 1 h 57 min
Overall bit rate : 5 335 kb/s
Encoded date : UTC 2020-11-06 11:54:03
Writing application : mkvmerge v5.3.0 ('I could have danced') built on Feb 9 2012 10:38:07
Writing library : libebml v1.2.3 + libmatroska v1.3.0
Cover : Yes
Attachments : cover.jpg

Video
ID : 1
Format : AVC
Format/Info : Advanced Video Codec
Format profile : High@L4.1
Format settings : CABAC / 11 Ref Frames
Format settings, CABAC : Yes
Format settings, Reference frames : 11 frames
Codec ID : V_MPEG4/ISO/AVC
Duration : 1 h 57 min
Bit rate : 4 889 kb/s
Width : 1 280 pixels
Height : 546 pixels
Display aspect ratio : 2.35:1
Frame rate mode : Constant
Frame rate : 23.976 (24000/1001) FPS
Color space : YUV
Chroma subsampling : 4:2:0
Bit depth : 8 bits
Scan type : Progressive
Bits/(Pixel*Frame) : 0.292
Stream size : 3.92 GiB (90%)
Writing library : x264 core 159 r2991+50 ce3db24 t_mod_New [(8 & 10)-bit@all X86_64]
Encoding settings : cabac=1 / ref=11 / deblock=1:-3:-3 / analyse=0x3:0x133 / me=umh / subme=11 / psy=1 / fade_compensate=0.00 / psy_rd=1.00:0.00 / mixed_ref=1 / me_range=32 / chroma_me=1 / trellis=2 / 8x8dct=1 / cqm=0 / deadzone=21,11 / fast_pskip=0 / chroma_qp_offset=-2 / threads=12 / lookahead_threads=3 / sliced_threads=0 / nr=0 / decimate=0 / interlaced=0 / bluray_compat=0 / constrained_intra=0 / fgo=0 / bframes=11 / b_pyramid=2 / b_adapt=2 / b_bias=0 / direct=3 / weightb=1 / open_gop=0 / weightp=2 / keyint=240 / keyint_min=23 / scenecut=40 / intra_refresh=0 / rc=2pass / mbtree=0 / bitrate=4889 / ratetol=1.0 / qcomp=0.65 / qpmin=0:0:0 / qpmax=69:69:69 / qpstep=4 / cplxblur=20.0 / qblur=0.5 / ip_ratio=1.25 / pb_ratio=1.30 / aq=3:0.90 / aq-sensitivity=10.00 / aq-factor=1.00:1.00:1.00 / aq2=0 / aq3=0
Language : English
Default : Yes
Forced : No
Color range : Limited
Color primaries : BT.709
Transfer characteristics : BT.709
Matrix coefficients : BT.709

Audio
ID : 2
Format : AC-3
Format/Info : Audio Coding 3
Commercial name : Dolby Digital
Codec ID : A_AC3
Duration : 1 h 57 min
Bit rate mode : Constant
Bit rate : 448 kb/s
Channel(s) : 6 channels
Channel layout : L R C LFE Ls Rs
Sampling rate : 48.0 kHz
Frame rate : 31.250 FPS (1536 SPF)
Bit depth : 16 bits
Compression mode : Lossy
Stream size : 376 MiB (8%)
Title : MVO | R5
Language : Russian
Service kind : Complete Main
Default : Yes
Forced : No

Text
ID : 3
Format : UTF-8
Codec ID : S_TEXT/UTF8
Codec ID/Info : UTF-8 Plain Text
Title : full
Language : Russian
Default : No
Forced : No

Zina
Аватара пользователя
 
Раздал: 0 байт
Скачал: 0 байт
Ратио: Inf.
Сообщения: 318
Зарегистрирован: 01 июл 2014, 16:52
  • Торрент
Автор: Zina Хэш: ---
Добавлен: 14 ноя 2020, 23:39 Приватный: Нет (DHT включён)
Статус: Проверен
Размер: 4.37 ГБ (4 693 429 555 байт)
Изменил:
---
Скачали: 511 (Раздающих: 0%)
Причина:
---
Здоровье: 100%
Сидеров: 27 Личеров: 0
Скорость раздачи: 0 байт/сек Скорость скачивания: 0 байт/сек
Последний сидер: 9 дней 13 часов 6 минут 2 секунды назад Последний личер: Нет
Для скачивания торрента необходимо зарегистрироваться или войти на трекер.

Форум Статистика

Кто сейчас на конференции

Сейчас этот форум просматривают: нет зарегистрированных пользователей и гости: 8

  • Похожие торренты
    Ответы
    Просмотры
    Последнее сообщение

Настройки

Вернуться в Фильмы / HDTV / HD / Blu-Ray

cron
Ресурс не предоставляет электронные версии произведений, а занимается лишь коллекционированием и каталогизацией ссылок, присылаемых и публикуемых на форуме нашими читателями. Если вы являетесь правообладателем какого-либо представленного материала и не желаете чтобы ссылка на него находилась в нашем каталоге, свяжитесь с нами и мы незамедлительно удалим её. Файлы для обмена на трекере предоставлены пользователями сайта, и администрация не несёт ответственности за их содержание. Просьба не заливать файлы, защищенные авторскими правами, а также файлы нелегального содержания!
tracker_cron