Модераторы: K15, Модераторы, Младшие модераторы

Прекрасным летним утром / Par un beau matin d'ete (1965) BDRip 720p от msltel | L1

Сообщение Zina » 14 ноя 2020, 23:39

#777

Название: Прекрасным летним утром
Оригинальное название: Par un beau matin d'ete
Страна: Франция, Италия, Испания
Год выпуска: 1965
Продолжительность: 01:49:46
Жанр: драма, криминал

Режиссер: Жак Дере

В ролях:
Жан-Поль Бельмондо, Софи Домье, Джеральдин Чаплин, Габриэле Ферцетти, Жорж Жере, Аким Тамирофф, Клод Серваль, Адольфо Чели, Жак Моно, Жермен Кержан

О фильме:
Бывалый преступник Фрэнк Крамер готовит новое дело - похищение Зельды Ван Вилли, дочери проживающего в Испании американского миллионера Ван Вилли, чтобы получить с отца большой денежный выкуп. В сообщники он привлекает рецидивиста Макса, которому нужны деньги на лечение больной матери, и двух мелких мошенников, Франсиса и его сестру Моник. Угрозами и шантажом в дело втягивают живущего в Испании художника Виктора Дермотта и его жену Консуэло. Поначалу всё идёт по плану. Девушку похитили, спрятали в доме Дермотта и отец согласился заплатить выкуп. Но дальше начались сложности. Дело дошло до острого конфликта между сообщниками, незапланированной стрельбы и жертв... Фильм снят по роману Джеймса Хедли Чейза.



Качество: BDRip 720p
Формат: MKV
Видео: MPEG-4 AVC, 10.1 Mбит/с, 1280x544, 23.976 кадр/с
Аудио 1: русский, AC3, 192 kbps, 2 ch, 48 kHz [закадровый одноголосый, dimadima]
Аудио 2: французский, DTS, 768 kbps, 2 ch, 48 kHz [оригинал]
Субтитры 1: русские (SRT)
Субтитры 2: французские (SRT)
Субтитры 3: английские (SRT)
Главы/чаптеры
Общее
Уникальный идентификатор : 236594928781975209974662627834564110420 (0xB1FE869B08CE364C99C02686CF92E854)
Полное имя : D:VideoПрекрасным летним утром.1965.BDRip 720p msltel.mkv
Формат : Matroska
Версия формата : Version 4
Размер файла : 8,50 Гбайт
Продолжительность : 1 ч. 49 м.
Общий поток : 11,1 Мбит/сек
Название фильма : Прекрасным летним утром.1965.BDRip msltel
Дата кодирования : UTC 2020-11-06 02:21:00
Программа кодирования : mkvmerge v8.2.0 ('World of Adventure') 64bit
Библиотека кодирования : libebml v1.3.1 + libmatroska v1.4.2

Видео
Идентификатор : 1
Формат : AVC
Формат/Информация : Advanced Video Codec
Профиль формата : High@L4.1
Настройки формата : CABAC / 12 Ref Frames
Параметр CABAC формата : Да
Параметр RefFrames формата : 12 кадров
Идентификатор кодека : V_MPEG4/ISO/AVC
Продолжительность : 1 ч. 49 м.
Битрейт : 10,1 Мбит/сек
Ширина : 1 280 пикселей
Высота : 544 пикселя
Соотношение сторон : 2,35:1
Режим частоты кадров : Постоянный
Частота кадров : 23,976 (24000/1001) кадра/сек
Цветовое пространство : YUV
Субдискретизация насыщенности : 4:2:0
Битовая глубина : 8 бит
Тип развёртки : Прогрессивная
Бит/(Пиксели*Кадры) : 0.606
Размер потока : 7,76 Гбайт (91%)
Библиотека кодирования : x264 core 161 r3018 db0d417
Настройки программы : cabac=1 / ref=12 / deblock=1:-2:-2 / analyse=0x3:0x113 / me=umh / subme=10 / psy=1 / psy_rd=1.10:0.00 / mixed_ref=1 / me_range=32 / chroma_me=1 / trellis=2 / 8x8dct=1 / cqm=0 / deadzone=21,11 / fast_pskip=0 / chroma_qp_offset=-2 / threads=6 / lookahead_threads=1 / sliced_threads=0 / nr=0 / decimate=0 / interlaced=0 / bluray_compat=0 / constrained_intra=0 / bframes=9 / b_pyramid=2 / b_adapt=2 / b_bias=0 / direct=1 / weightb=1 / open_gop=0 / weightp=2 / keyint=230 / keyint_min=23 / scenecut=40 / intra_refresh=0 / rc_lookahead=40 / rc=crf / mbtree=0 / crf=16.0 / qcomp=0.60 / qpmin=0 / qpmax=69 / qpstep=4 / vbv_maxrate=62500 / vbv_bufsize=78125 / crf_max=0.0 / nal_hrd=none / filler=0 / ip_ratio=1.40 / pb_ratio=1.30 / aq=2:0.90
Язык : French
Default : Да
Forced : Нет

Аудио #1
Идентификатор : 2
Формат : AC-3
Формат/Информация : Audio Coding 3
Коммерческое название : Dolby Digital
Идентификатор кодека : A_AC3
Продолжительность : 1 ч. 49 м.
Вид битрейта : Постоянный
Битрейт : 192 Кбит/сек
Каналы : 2 канала
Channel layout : L R
Частота : 48,0 КГц
Частота кадров : 31,250 кадров/сек (1536 SPF)
Метод сжатия : С потерями
Размер потока : 151 Мбайт (2%)
Заголовок : dimadima
Язык : Russian
Service kind : Complete Main
Default : Да
Forced : Нет

Аудио #2
Идентификатор : 3
Формат : DTS
Формат/Информация : Digital Theater Systems
Идентификатор кодека : A_DTS
Продолжительность : 1 ч. 49 м.
Вид битрейта : Постоянный
Битрейт : 768 Кбит/сек
Каналы : 2 канала
Channel layout : L R
Частота : 48,0 КГц
Частота кадров : 93,750 кадра/сек (512 SPF)
Битовая глубина : 24 бит
Метод сжатия : С потерями
Размер потока : 603 Мбайт (7%)
Заголовок : оригинал
Язык : French
Default : Нет
Forced : Нет

Текст #1
Идентификатор : 4
Формат : UTF-8
Идентификатор кодека : S_TEXT/UTF8
Идентификатор кодека/Информация : UTF-8 Plain Text
Продолжительность : 1 ч. 46 м.
Битрейт : 89 бит/сек
Count of elements : 1074
Размер потока : 69,1 Кбайт (0%)
Заголовок : русские
Язык : Russian
Default : Нет
Forced : Нет

Текст #2
Идентификатор : 5
Формат : UTF-8
Идентификатор кодека : S_TEXT/UTF8
Идентификатор кодека/Информация : UTF-8 Plain Text
Продолжительность : 1 ч. 46 м.
Битрейт : 49 бит/сек
Count of elements : 1132
Размер потока : 38,7 Кбайт (0%)
Заголовок : французские
Язык : French
Default : Нет
Forced : Нет

Текст #3
Идентификатор : 6
Формат : UTF-8
Идентификатор кодека : S_TEXT/UTF8
Идентификатор кодека/Информация : UTF-8 Plain Text
Продолжительность : 1 ч. 45 м.
Битрейт : 46 бит/сек
Count of elements : 1049
Размер потока : 36,3 Кбайт (0%)
Заголовок : английские
Язык : English
Default : Нет
Forced : Нет

Меню
00:00:00.000 : :
00:13:22.760 : :
00:23:49.678 : :
00:33:04.733 : :
00:40:28.468 : :
00:48:12.306 : :
00:56:42.566 : :
01:04:09.804 : :
01:12:01.317 : :
01:24:31.900 : :
01:34:21.614 : :
01:43:29.495 : :

Исходник vs Рип



Zina
Аватара пользователя
 
Раздал: 0 байт
Скачал: 0 байт
Ратио: Inf.
Сообщения: 318
Зарегистрирован: 01 июл 2014, 16:52
  • Торрент
Автор: Zina Хэш: ---
Добавлен: 14 ноя 2020, 23:39 Приватный: Нет (DHT включён)
Статус: Проверен
Размер: 8.5 ГБ (9 122 796 038 байт)
Изменил:
---
Скачали: 101 (Раздающих: 0%)
Причина:
---
Здоровье: 100%
Сидеров: 4 Личеров: 1
Скорость раздачи: 0 байт/сек Скорость скачивания: 0 байт/сек
Последний сидер: 9 дней 12 часов 8 минут 50 секунд назад Последний личер: 9 дней 12 часов 8 минут 50 секунд назад
Для скачивания торрента необходимо зарегистрироваться или войти на трекер.

Форум Статистика

Кто сейчас на конференции

Сейчас этот форум просматривают: Bing [Bot] и гости: 8

  • Похожие торренты
    Ответы
    Просмотры
    Последнее сообщение

Настройки

Вернуться в Фильмы / HDTV / HD / Blu-Ray

cron
Ресурс не предоставляет электронные версии произведений, а занимается лишь коллекционированием и каталогизацией ссылок, присылаемых и публикуемых на форуме нашими читателями. Если вы являетесь правообладателем какого-либо представленного материала и не желаете чтобы ссылка на него находилась в нашем каталоге, свяжитесь с нами и мы незамедлительно удалим её. Файлы для обмена на трекере предоставлены пользователями сайта, и администрация не несёт ответственности за их содержание. Просьба не заливать файлы, защищенные авторскими правами, а также файлы нелегального содержания!