Модераторы: K15, Модераторы, Младшие модераторы

Чудо-детки: Непутевые волшебники / Die Wolf-Gäng / The Magic Kids - Three Unlikely Heroes (2020) BDRip 720p от селезень | iTunes

Сообщение Zina » 14 ноя 2020, 23:39

#777

Информация о фильме
Название: Чудо-детки: Непутевые волшебники
Оригинальное название: Die Wolf-Gäng / The Magic Kids - Three Unlikely Heroes
Год выхода: 2020
Страна: Германия
Студия: Rat Pack Filmproduktion
Продолжительность: 01:36:56
Перевод: Дублированный | iTunes
Жанр: Фэнтези, приключения, семейный

Режиссер: Тим Трагезер

В ролях:
Кристиан Беркель, Арсений Бультман, Буц Бузе, Ширли Феринг, Арвед Фризе, Соня Герхардт, Николь Хеестерс, Грета Хуберт, Рик Каваниан, Торстен Кавур

О фильме:
В центре сюжета картины история 13-летнего мальчика вампира Влада, который попадает в одну из самых престижных школ волшебства мира. Городок Краильсфельден и школа оказываются пристанищем самых разнообразных сказочных существ. С появлением Влада и его отца там теперь есть и вампиры. Всё выглядит чудесно, но у маленького Влада есть одна большая проблема. Вампир совершенно не выносит вида крови. Его друзьями в школе становятся два таких же неудачника: страдающая аэрофобией фея и мальчик-оборотень с аллергией на шерсть животных. Вместе трём героям предстоит пережить незабываемые приключения и бросить вызов мэру городка.



Качество: BDRip 720p
Видео: MPEG-4 AVC, 1280x536, 6243 Kbit/s, 23.976 fps
Аудио #01: 48 kHz, AC3, 5.1, 384 Kbps | iTunes | RUS |
Аудио #02: 48 kHz, AC3, 5.1, 640 Kbps | Оригинал | GER |
Субтитры: Английские



General
Unique ID : 123802258799892753888046472526922632290 (0x5D23729F1FE7BFBFFF95AEE26689CC62)
Complete name : D:Video111Die.Wolf.Gang.2020.BDRip.720p.seleZen.mkv
Format : Matroska
Format version : Version 4
File size : 4.91 GiB
Duration : 1 h 36 min
Overall bit rate : 7 247 kb/s
Movie name : Die Wolf-Gäng 2020 from seleZen
Encoded date : UTC 2020-11-06 01:22:04
Writing application : mkvmerge v40.0.0 ('Old Town Road + Pony') 64-bit
Writing library : libebml v1.3.9 + libmatroska v1.5.2

Video
ID : 1
Format : AVC
Format/Info : Advanced Video Codec
Format profile : High@L4.1
Format settings : CABAC / 12 Ref Frames
Format settings, CABAC : Yes
Format settings, Reference : 12 frames
Codec ID : V_MPEG4/ISO/AVC
Duration : 1 h 36 min
Bit rate : 6 243 kb/s
Width : 1 280 pixels
Height : 536 pixels
Display aspect ratio : 2.40:1
Frame rate mode : Constant
Frame rate : 23.976 (24000/1001) FPS
Color space : YUV
Chroma subsampling : 4:2:0
Bit depth : 8 bits
Scan type : Progressive
Bits/(Pixel*Frame) : 0.380
Stream size : 4.21 GiB (86%)
Title : Encoded by seleZen
Writing library : x264 core 157 r2935 545de2f
Encoding settings : cabac=1 / ref=12 / deblock=1:-2:-2 / analyse=0x3:0x133 / me=umh / subme=10 / psy=1 / psy_rd=1.00:0.00 / mixed_ref=1 / me_range=32 / chroma_me=1 / trellis=2 / 8x8dct=1 / cqm=0 / deadzone=21,11 / fast_pskip=0 / chroma_qp_offset=-2 / threads=17 / lookahead_threads=2 / sliced_threads=0 / nr=0 / decimate=0 / interlaced=0 / bluray_compat=0 / constrained_intra=0 / bframes=8 / b_pyramid=2 / b_adapt=2 / b_bias=0 / direct=3 / weightb=1 / open_gop=0 / weightp=2 / keyint=240 / keyint_min=24 / scenecut=40 / intra_refresh=0 / rc_lookahead=40 / rc=2pass / mbtree=0 / bitrate=6243 / ratetol=1.0 / qcomp=0.60 / qpmin=0 / qpmax=51 / qpstep=4 / cplxblur=20.0 / qblur=0.5 / vbv_maxrate=50000 / vbv_bufsize=62500 / nal_hrd=none / filler=0 / ip_ratio=1.40 / pb_ratio=1.30 / aq=1:1.00
Language : German
Default : Yes
Forced : No
Color range : Limited
Color primaries : BT.709
Transfer characteristics : BT.709
Matrix coefficients : BT.709

Audio #1
ID : 2
Format : AC-3
Format/Info : Audio Coding 3
Commercial name : Dolby Digital
Codec ID : A_AC3
Duration : 1 h 36 min
Bit rate mode : Constant
Bit rate : 384 kb/s
Channel(s) : 6 channels
Channel layout : L R C LFE Ls Rs
Sampling rate : 48.0 kHz
Frame rate : 31.250 FPS (1536 SPF)
Compression mode : Lossy
Stream size : 266 MiB (5%)
Title : iTunes
Language : Russian
Service kind : Complete Main
Default : Yes
Forced : Yes

Audio #2
ID : 3
Format : AC-3
Format/Info : Audio Coding 3
Commercial name : Dolby Digital
Codec ID : A_AC3
Duration : 1 h 36 min
Bit rate mode : Constant
Bit rate : 640 kb/s
Channel(s) : 6 channels
Channel layout : L R C LFE Ls Rs
Sampling rate : 48.0 kHz
Frame rate : 31.250 FPS (1536 SPF)
Compression mode : Lossy
Stream size : 444 MiB (9%)
Title : Original
Language : German
Service kind : Complete Main
Default : No
Forced : No

Text
ID : 4
Format : UTF-8
Codec ID : S_TEXT/UTF8
Codec ID/Info : UTF-8 Plain Text
Duration : 1 h 31 min
Bit rate : 52 b/s
Count of elements : 1268
Stream size : 35.3 KiB (0%)
Title : SDH
Language : English
Default : No
Forced : No

Menu
00:00:00.000 : de:Глава 01
00:02:26.897 : de:Глава 02
00:08:23.169 : de:Глава 03
00:13:00.363 : de:Глава 04
00:17:41.978 : de:Глава 05
00:25:10.968 : de:Глава 06
00:28:22.743 : de:Глава 07
00:34:01.122 : de:Глава 08
00:41:26.567 : de:Глава 09
00:48:01.504 : de:Глава 10
00:53:10.437 : de:Глава 11
00:59:04.332 : de:Глава 12
01:10:33.563 : de:Глава 13
01:15:43.247 : de:Глава 14
01:24:27.271 : de:Глава 15
01:30:56.618 : de:Глава 16


Релиз:

Zina
Аватара пользователя
 
Раздал: 0 байт
Скачал: 0 байт
Ратио: Inf.
Сообщения: 318
Зарегистрирован: 01 июл 2014, 16:52
  • Торрент
Автор: Zina Хэш: ---
Добавлен: 14 ноя 2020, 23:39 Приватный: Нет (DHT включён)
Статус: Проверен
Размер: 4.91 ГБ (5 270 294 408 байт)
Изменил:
---
Скачали: 1111 (Раздающих: 0%)
Причина:
---
Здоровье: 100%
Сидеров: 99 Личеров: 9
Скорость раздачи: 0 байт/сек Скорость скачивания: 0 байт/сек
Последний сидер: 9 дней 12 часов 41 минуту 24 секунды назад Последний личер: 9 дней 12 часов 41 минуту 24 секунды назад
Для скачивания торрента необходимо зарегистрироваться или войти на трекер.

Форум Статистика

Кто сейчас на конференции

Сейчас этот форум просматривают: нет зарегистрированных пользователей и гости: 4

  • Похожие торренты
    Ответы
    Просмотры
    Последнее сообщение

Настройки

Вернуться в Фильмы / HDTV / HD / Blu-Ray

cron
Ресурс не предоставляет электронные версии произведений, а занимается лишь коллекционированием и каталогизацией ссылок, присылаемых и публикуемых на форуме нашими читателями. Если вы являетесь правообладателем какого-либо представленного материала и не желаете чтобы ссылка на него находилась в нашем каталоге, свяжитесь с нами и мы незамедлительно удалим её. Файлы для обмена на трекере предоставлены пользователями сайта, и администрация не несёт ответственности за их содержание. Просьба не заливать файлы, защищенные авторскими правами, а также файлы нелегального содержания!