Модераторы: K15, Младшие модераторы, Модераторы

Терминатор: Темные судьбы / Terminator: Dark Fate (2019) WEBRip 720p от SuperMin | D | Open Matte

Сообщение Zina » 14 ноя 2020, 23:39

Терминатор: Темные судьбы / Terminator: Dark Fate


#777

Информация о фильме
Название: Терминатор: Темные судьбы
Оригинальное название: Terminator: Dark Fate
Год выхода: 2019
Страна: США, Китай
Студия: Paramount Pictures, Twentieth Century Fox, Skydance Media
Продолжительность: 02:08:11
Перевод: Дубляж
Жанр: Фантастика, боевик, приключения

Режиссер: Тим Миллер

В ролях:
Арнольд Шварценеггер, Маккензи Дэвис, Линда Хэмилтон, Эдвард Ферлонг, Гэбриел Луна, Наталия Рейес, Том Хоппер, Диего Бонета, Алисия Боррачеро, Энрике Арсе, Стивен Кри, Ферран Фернандес


Мексика. Милая девушка Даниэла Рамос, а для друзей просто Дани, вместе с братом приходит с утра работать на завод, но там выясняется, что их вскоре заменят автоматикой. И это не единственная угроза, которую представляют для девушки машины: тут же на неё нападает присланная из будущего и практически неубиваемая модель терминатора REV-9. Но на защиту Дани встает Грэйс — тоже прибывшая из будущего женщина, модифицировавшая свои боевые характеристики до терминаторского уровня. Вскоре к ним на помощь придёт и Сара Коннор, которая теперь превратилась в настоящую охотницу на роботов-убийц.




Файл
Кодек: H.264
Качество: WEBRip 720p
Видео: 1280x720 (16:9), 3000 kbps, 23.976 fps
Звук: Русский (AC-3, 6ch, 384 kbps)
Английский (AC3, 6ch, 448 kbps)
Субтитры: Русские(хардсаб, полные), английские

x264 [info]: frame I:1538 Avg QP:17.19 size: 85304
x264 [info]: frame P:48223 Avg QP:18.85 size: 30572
x264 [info]: frame B:146727 Avg QP:21.90 size: 9692
x264 [info]: consecutive B-frames: 2.4% 3.5% 15.6% 26.1% 23.6% 25.6% 2.1% 0.9% 0.1% 0.0%

General
Unique ID : 206056916757965953226391875712990107715 (0x9B051E5E178282B8B3384C2CF1C8D843)
Complete name : F:КИНОРУТОРТерминатор. Тёмные судьбы (Open Matte).WEBRip 720p.mkv
Format : Matroska
Format version : Version 4
File size : 3.32 GiB
Duration : 2 h 8 min
Overall bit rate : 3 711 kb/s
Encoded date : UTC 2020-11-05 15:40:50
Writing application : mkvmerge v8.3.0 ('Over the Horizon') 32bit
Writing library : libebml v1.3.1 + libmatroska v1.4.2

Video
ID : 1
Format : AVC
Format/Info : Advanced Video Codec
Format profile : High@L4.1
Format settings : CABAC / 9 Ref Frames
Format settings, CABAC : Yes
Format settings, Reference : 9 frames
Codec ID : V_MPEG4/ISO/AVC
Duration : 2 h 8 min
Bit rate : 3 000 kb/s
Width : 1 280 pixels
Height : 720 pixels
Display aspect ratio : 16:9
Frame rate mode : Constant
Frame rate : 23.976 (24000/1001) FPS
Color space : YUV
Chroma subsampling : 4:2:0
Bit depth : 8 bits
Scan type : Progressive
Bits/(Pixel*Frame) : 0.136
Stream size : 2.58 GiB (78%)
Writing library : x264 core 159 r2991 1771b55
Encoding settings : cabac=1 / ref=9 / deblock=1:-2:-2 / analyse=0x3:0x113 / me=umh / subme=10 / psy=1 / psy_rd=1.00:0.20 / mixed_ref=1 / me_range=32 / chroma_me=1 / trellis=2 / 8x8dct=1 / cqm=0 / deadzone=21,11 / fast_pskip=0 / chroma_qp_offset=-3 / threads=12 / lookahead_threads=3 / sliced_threads=0 / nr=0 / decimate=1 / interlaced=0 / bluray_compat=0 / constrained_intra=0 / bframes=10 / b_pyramid=2 / b_adapt=2 / b_bias=0 / direct=3 / weightb=1 / open_gop=0 / weightp=2 / keyint=240 / keyint_min=23 / scenecut=40 / intra_refresh=0 / rc=2pass / mbtree=0 / bitrate=3000 / ratetol=1.0 / qcomp=0.60 / qpmin=0 / qpmax=69 / qpstep=4 / cplxblur=20.0 / qblur=0.5 / ip_ratio=1.40 / pb_ratio=1.30 / aq=1:1.00
Default : Yes
Forced : No

Audio #1
ID : 2
Format : AC-3
Format/Info : Audio Coding 3
Commercial name : Dolby Digital
Codec ID : A_AC3
Duration : 2 h 8 min
Bit rate mode : Constant
Bit rate : 384 kb/s
Channel(s) : 6 channels
Channel layout : L R C LFE Ls Rs
Sampling rate : 48.0 kHz
Frame rate : 31.250 FPS (1536 SPF)
Compression mode : Lossy
Stream size : 352 MiB (10%)
Language : Russian
Service kind : Complete Main
Default : Yes
Forced : No

Audio #2
ID : 3
Format : AC-3
Format/Info : Audio Coding 3
Commercial name : Dolby Digital
Codec ID : A_AC3
Duration : 2 h 8 min
Bit rate mode : Constant
Bit rate : 448 kb/s
Channel(s) : 6 channels
Channel layout : L R C LFE Ls Rs
Sampling rate : 48.0 kHz
Frame rate : 31.250 FPS (1536 SPF)
Compression mode : Lossy
Stream size : 410 MiB (12%)
Language : English
Service kind : Complete Main
Default : No
Forced : No

Text #1
ID : 4
Format : UTF-8
Codec ID : S_TEXT/UTF8
Codec ID/Info : UTF-8 Plain Text
Duration : 1 h 57 min
Bit rate : 49 b/s
Count of elements : 1249
Stream size : 42.2 KiB (0%)
Language : Russian
Default : No
Forced : No

Text #2
ID : 5
Format : UTF-8
Codec ID : S_TEXT/UTF8
Codec ID/Info : UTF-8 Plain Text
Duration : 1 h 57 min
Bit rate : 31 b/s
Count of elements : 1079
Stream size : 27.4 KiB (0%)
Language : English
Default : No
Forced : No
Open Matte-версия фильма имеет другое наполнение кадра по сравнению с Blu-ray.
Большинство обрезано по бокам!


Zina
Аватара пользователя
 
Раздал: 0 байт
Скачал: 0 байт
Ратио: Inf.
Сообщения: 325
Зарегистрирован: 01 июл 2014, 16:52
  • Торрент
Автор: Zina Хэш: ---
Добавлен: 14 ноя 2020, 23:39 Приватный: Нет (DHT включён)
Статус: Проверен
Размер: 3.32 ГБ (3 567 210 442 байт)
Изменил:
---
Скачали: 1267 (Раздающих: 0%)
Причина:
---
Здоровье: 100%
Сидеров: 67 Личеров: 6
Скорость раздачи: 0 байт/сек Скорость скачивания: 0 байт/сек
Последний сидер: 2 дня 15 часов 25 минут 1 секунду назад Последний личер: 2 дня 15 часов 25 минут 1 секунду назад
Для скачивания торрента необходимо зарегистрироваться или войти на трекер.

Форум Статистика

Кто сейчас на конференции

Сейчас этот форум просматривают: Google [Bot] и гости: 1

  • Похожие торренты
    Ответы
    Просмотры
    Последнее сообщение

Настройки

Вернуться в Фильмы / HDTV / HD / Blu-Ray

cron
Ресурс не предоставляет электронные версии произведений, а занимается лишь коллекционированием и каталогизацией ссылок, присылаемых и публикуемых на форуме нашими читателями. Если вы являетесь правообладателем какого-либо представленного материала и не желаете чтобы ссылка на него находилась в нашем каталоге, свяжитесь с нами и мы незамедлительно удалим её. Файлы для обмена на трекере предоставлены пользователями сайта, и администрация не несёт ответственности за их содержание. Просьба не заливать файлы, защищенные авторскими правами, а также файлы нелегального содержания!
tracker_cron