Модераторы: K15, Младшие модераторы, Модераторы

Такова жизнь! / That's Life (1986) WEB-DLRip 720p от SuperMin | P2

Сообщение Zina » 14 ноя 2020, 23:39

Такова жизнь! / That's Life


#777

Информация о фильме
Название: Такова жизнь!
Оригинальное название: That's Life
Год выхода: 1986
Страна: США
Студия: Blake Edwards, Delphi V Productions, Paradise Cove Productions, Ubilam Productions
Продолжительность: 01:42:00
Перевод: Профессиональный (двухголосый закадровый) НТВ+
Жанр: Комедия, драма

Режиссер: Блэйк Эдвардс

В ролях:
Джек Леммон, Джули Эндрюс, Салли Келлермен, Роберт Лоджа, Дженнифер Эдвардс, Роберт Неппер, Мэтт Латтанци, Крис Леммон, Синтия Сайкс, Дэна Спаркс, Эмма Уолтон, Фелиция Фарр, Тедди Уилсон, Никки Блэр, Джордан Кристофер, Бифф Эллиот, Хэл Риддл, Харольд Харрис, Джо Лопес, Фрэнн Брэдфорд


Харви справляет свое шестидесятилетие и переживает кризис — он не может смириться со старостью. Его жена ждет результатов анализов по подозрению на рак. К тому же, они ужасно устали от своих взрослых детей, взбалмошных соседей и местного священника-алкоголика.



Файл
Кодек: H.264
Качество: WEB-DLRip 720p
Видео: 1280x532 (2.40:1), 3877 kbps, 23.976 fps
Звук: Русский (AC-3, 2ch, 224 kbps)
Английский (AC-3, 2ch, 224 kbps)
Субтитры: английские

General
Unique ID : 324738785740459356758460971190667165291 (0xF44E6A47AC67945A525FBE76CAFFBE6B)
Complete name : F:КИНОРУТОРТакова.жизнь!.WEB-DLRip 720p.mkv
Format : Matroska
Format version : Version 4
File size : 3.08 GiB
Duration : 1 h 42 min
Overall bit rate : 4 327 kb/s
Movie name : Такова жизнь / That's Life (1986) - #LORDKILL#
Encoded date : UTC 2020-11-05 17:03:32
Writing application : mkvmerge v32.0.0 ('Astral Progressions') 64-bit
Writing library : libebml v1.3.7 + libmatroska v1.5.0

Video
ID : 1
Format : AVC
Format/Info : Advanced Video Codec
Format profile : Main@L4.1
Format settings : CABAC / 12 Ref Frames
Format settings, CABAC : Yes
Format settings, Reference : 12 frames
Codec ID : V_MPEG4/ISO/AVC
Duration : 1 h 42 min
Bit rate : 3 877 kb/s
Width : 1 280 pixels
Height : 532 pixels
Display aspect ratio : 2.40:1
Frame rate mode : Constant
Frame rate : 23.976 (24000/1001) FPS
Color space : YUV
Chroma subsampling : 4:2:0
Bit depth : 8 bits
Scan type : Progressive
Bits/(Pixel*Frame) : 0.237
Stream size : 2.76 GiB (90%)
Writing library : x264 core 157 r2935 545de2f
Encoding settings : cabac=1 / ref=12 / deblock=1:0:0 / analyse=0x1:0x131 / me=umh / subme=10 / psy=1 / psy_rd=1.00:0.20 / mixed_ref=1 / me_range=32 / chroma_me=1 / trellis=2 / 8x8dct=0 / cqm=0 / deadzone=21,11 / fast_pskip=1 / chroma_qp_offset=-3 / threads=12 / lookahead_threads=3 / sliced_threads=0 / nr=0 / decimate=1 / interlaced=0 / bluray_compat=0 / constrained_intra=0 / bframes=10 / b_pyramid=2 / b_adapt=2 / b_bias=0 / direct=3 / weightb=1 / open_gop=0 / weightp=2 / keyint=240 / keyint_min=23 / scenecut=40 / intra_refresh=0 / rc_lookahead=60 / rc=crf / mbtree=0 / crf=19.0 / qcomp=0.60 / qpmin=0 / qpmax=69 / qpstep=4 / vbv_maxrate=50000 / vbv_bufsize=62500 / crf_max=0.0 / nal_hrd=none / filler=0 / ip_ratio=1.40 / pb_ratio=1.30 / aq=1:1.00
Default : Yes
Forced : No
Color range : Limited
Color primaries : BT.709
Transfer characteristics : BT.709
Matrix coefficients : BT.709

Audio #1
ID : 2
Format : AC-3
Format/Info : Audio Coding 3
Commercial name : Dolby Digital
Codec ID : A_AC3
Duration : 1 h 42 min
Bit rate mode : Constant
Bit rate : 224 kb/s
Channel(s) : 2 channels
Channel layout : L R
Sampling rate : 48.0 kHz
Frame rate : 31.250 FPS (1536 SPF)
Compression mode : Lossy
Stream size : 163 MiB (5%)
Title : DVO (НТВ+)
Language : Russian
Service kind : Complete Main
Default : Yes
Forced : No

Audio #2
ID : 3
Format : AC-3
Format/Info : Audio Coding 3
Commercial name : Dolby Digital
Codec ID : A_AC3
Duration : 1 h 42 min
Bit rate mode : Constant
Bit rate : 224 kb/s
Channel(s) : 2 channels
Channel layout : L R
Sampling rate : 48.0 kHz
Frame rate : 31.250 FPS (1536 SPF)
Compression mode : Lossy
Stream size : 163 MiB (5%)
Language : English
Service kind : Complete Main
Default : No
Forced : No

Text
ID : 4
Format : UTF-8
Codec ID : S_TEXT/UTF8
Codec ID/Info : UTF-8 Plain Text
Duration : 1 h 41 min
Bit rate : 93 b/s
Count of elements : 1754
Stream size : 69.9 KiB (0%)
Title : SDH
Language : English
Default : No
Forced : No
Zina
Аватара пользователя
 
Раздал: 0 байт
Скачал: 0 байт
Ратио: Inf.
Сообщения: 325
Зарегистрирован: 01 июл 2014, 16:52
  • Торрент
Автор: Zina Хэш: ---
Добавлен: 14 ноя 2020, 23:39 Приватный: Нет (DHT включён)
Статус: Проверен
Размер: 3.08 ГБ (3 310 518 272 байт)
Изменил:
---
Скачали: 154 (Раздающих: 0%)
Причина:
---
Здоровье: 100%
Сидеров: 5 Личеров: 0
Скорость раздачи: 0 байт/сек Скорость скачивания: 0 байт/сек
Последний сидер: 2 дня 13 часов 38 минут 15 секунд назад Последний личер: Нет
Для скачивания торрента необходимо зарегистрироваться или войти на трекер.

Форум Статистика

Кто сейчас на конференции

Сейчас этот форум просматривают: нет зарегистрированных пользователей и гости: 6

  • Похожие торренты
    Ответы
    Просмотры
    Последнее сообщение

Настройки

Вернуться в Фильмы / HDTV / HD / Blu-Ray

cron
Ресурс не предоставляет электронные версии произведений, а занимается лишь коллекционированием и каталогизацией ссылок, присылаемых и публикуемых на форуме нашими читателями. Если вы являетесь правообладателем какого-либо представленного материала и не желаете чтобы ссылка на него находилась в нашем каталоге, свяжитесь с нами и мы незамедлительно удалим её. Файлы для обмена на трекере предоставлены пользователями сайта, и администрация не несёт ответственности за их содержание. Просьба не заливать файлы, защищенные авторскими правами, а также файлы нелегального содержания!
tracker_cron