Модераторы: K15, Младшие модераторы, Модераторы

Стигматы / Stigmata (1999) BDRip 720р от KORSAR | D, P, A

Сообщение Zina » 14 ноя 2020, 23:39

Стигматы / Stigmata


#777

Год выпуска: 1999
Выпущено: США, Студия: FGM Entertainment, Metro-Goldwyn-Mayer (MGM)
Продолжительность: 01:42:13
Перевод: Дублированный, профессиональный многоголосый, авторский одноголосый (А. Гаврилов)
Жанр: Ужасы, триллер, детектив

Режиссер: Руперт Уэйнрайт

В ролях:
Патриция Аркетт, Гэбриел Бирн, Джонатан Прайс, Ниа Лонг, Томас Копаче, Раде Шербеджия, Энрико Колантони, Дик Латесса, Порша де Росси, Патрик Малдун

О Фильме:
Фрэнки Пейдж живет спокойно, свободно и беззаботно. И меньше всего ее беспокоят вопросы о Боге. Все это в одночасье меняется, когда ее поражают «стигматы» — кровоточащие раны распятого Христа. Вскоре на нее обращает внимание отец Кернан, уполномоченный следователь из Ватикана. Одновременно и другой священнослужитель, коррумпированный кардинал Хаусмен, понимает, что Фрэнки избрана для передачи сокрушительного пророчества, которое может навредить официальной церкви. Он убежден, что необходимо любым способом заставить ее замолчать. Поэтому Кернан, рискуя жизнью, пытается спасти Фрэнки и получить послание, не только разбивающее устои римско-католической церкви, но и навсегда изменяющее судьбу человечества.



Кодек: х264
Качество: BDRip 720p
Видео: MPEG-4 AVC, 1280x544, 23,976 fps, 6200 Кбит/с
Аудио 1: Russian: AC3, 48 kHz, 6 ch, 448 Кбит/с, Дублированный
Аудио 2: Russian: AC3, 48 kHz, 2 ch, 192 Кбит/с, Профессиональный многоголосый
Аудио 3: Russian: AC3, 48 kHz, 6 ch, 640 Кбит/с, Авторский одноголосый (А. Гаврилов)
Аудио 4: English: AC3, 48 kHz, 6 ch, 640 Кбит/с, Оригинал
Субтитры: Русские (форс., полные), английские
Главы: Есть



x264 [info]: frame I:1106 Avg QP:15.92 size:152762
x264 [info]: frame P:33309 Avg QP:19.52 size: 59187
x264 [info]: frame B:112610 Avg QP:21.68 size: 23192

Общее
Уникальный идентификатор : 227286076322528971774374180947289799157 (0xAAFDB4BE973BB6EEAC2034E52E2579F5)
Полное имя : E:Мои рипыСтигматы 1999_BDRip 720р_KORSAR .mkv
Формат : Matroska
Версия формата : Version 2
Размер файла : 5,80 Гбайт
Продолжительность : 1 ч. 42 м.
Общий поток : 8122 Кбит/сек
Название фильма : Стигматы 1999_BDRip 720р
Дата кодирования : UTC 2017-12-29 04:41:46
Программа кодирования : mkvmerge v5.8.0 ('No Sleep / Pillow') built on Sep 2 2012 15:37:04
Библиотека кодирования : libebml v1.2.3 + libmatroska v1.3.0

Видео
Идентификатор : 1
Формат : AVC
Формат/Информация : Advanced Video Codec
Профиль формата : High@L4.1
Настройки формата : CABAC / 12 Ref Frames
Параметр CABAC формата : Да
Параметр RefFrames формата : 12 кадров
Идентификатор кодека : V_MPEG4/ISO/AVC
Продолжительность : 1 ч. 42 м.
Битрейт : 6200 Кбит/сек
Ширина : 1280 пикселей
Высота : 544 пикселя
Соотношение сторон : 2,35:1
Режим частоты кадров : Постоянный
Частота кадров : 23,976 (24000/1001) кадра/сек
Цветовое пространство : YUV
Субдискретизация насыщенности : 4:2:0
Битовая глубина : 8 бит
Тип развёртки : Прогрессивная
Бит/(Пиксели*Кадры) : 0.371
Размер потока : 4,31 Гбайт (74%)
Библиотека кодирования : x264 core 152 r2851kMod ba24899
Настройки программы : cabac=1 / ref=12 / deblock=1:-2:-2 / analyse=0x3:0x113 / me=umh / subme=11 / psy=1 / fade_compensate=0.00 / psy_rd=1.03:0.08 / mixed_ref=1 / me_range=48 / chroma_me=1 / trellis=2 / 8x8dct=1 / cqm=0 / deadzone=21,11 / fast_pskip=0 / chroma_qp_offset=-3 / threads=12 / lookahead_threads=3 / sliced_threads=0 / nr=0 / decimate=0 / interlaced=0 / bluray_compat=0 / constrained_intra=0 / bframes=10 / b_pyramid=2 / b_adapt=2 / b_bias=0 / direct=3 / weightb=1 / open_gop=0 / weightp=2 / keyint=240 / keyint_min=23 / scenecut=40 / intra_refresh=0 / rc_lookahead=40 / rc=2pass / mbtree=0 / bitrate=6200 / ratetol=1.0 / qcomp=0.60 / qpmin=0 / qpmax=39 / qpstep=4 / cplxblur=20.0 / qblur=0.5 / vbv_maxrate=50000 / vbv_bufsize=62500 / nal_hrd=none / filler=0 / ip_ratio=1.40 / pb_ratio=1.30 / aq=1:0.90
Язык : English
Default : Да
Forced : Нет
Цветовой диапазон : Limited
Основные цвета : BT.709
Характеристики трансфера : BT.709
Коэффициенты матрицы : BT.709

Аудио #1
Идентификатор : 2
Формат : AC-3
Формат/Информация : Audio Coding 3
Параметр Endianness формата : Big
Идентификатор кодека : A_AC3
Продолжительность : 1 ч. 42 м.
Вид битрейта : Постоянный
Битрейт : 448 Кбит/сек
Каналы : 6 каналов
Расположение каналов : Front: L C R, Side: L R, LFE
Частота : 48,0 КГц
Частота кадров : 31,250 кадров/сек (1536 SPF)
Битовая глубина : 16 бит
Метод сжатия : С потерями
Размер потока : 328 Мбайт (6%)
Заголовок : Дублированный
Язык : Russian
Default : Да
Forced : Нет

Аудио #2
Идентификатор : 3
Формат : AC-3
Формат/Информация : Audio Coding 3
Параметр Endianness формата : Big
Идентификатор кодека : A_AC3
Продолжительность : 1 ч. 42 м.
Вид битрейта : Постоянный
Битрейт : 192 Кбит/сек
Каналы : 2 канала
Расположение каналов : Front: L R
Частота : 48,0 КГц
Частота кадров : 31,250 кадров/сек (1536 SPF)
Битовая глубина : 16 бит
Метод сжатия : С потерями
Размер потока : 140 Мбайт (2%)
Заголовок : Профессиональный многоголосый
Язык : Russian
Default : Нет
Forced : Нет

Аудио #3
Идентификатор : 4
Формат : AC-3
Формат/Информация : Audio Coding 3
Параметр Endianness формата : Big
Идентификатор кодека : A_AC3
Продолжительность : 1 ч. 42 м.
Вид битрейта : Постоянный
Битрейт : 640 Кбит/сек
Каналы : 6 каналов
Расположение каналов : Front: L C R, Side: L R, LFE
Частота : 48,0 КГц
Частота кадров : 31,250 кадров/сек (1536 SPF)
Битовая глубина : 16 бит
Метод сжатия : С потерями
Размер потока : 468 Мбайт (8%)
Заголовок : Авторский одноголосый (А. Гаврилов)
Язык : Russian
Default : Нет
Forced : Нет

Аудио #4
Идентификатор : 5
Формат : AC-3
Формат/Информация : Audio Coding 3
Параметр Endianness формата : Big
Идентификатор кодека : A_AC3
Продолжительность : 1 ч. 42 м.
Вид битрейта : Постоянный
Битрейт : 640 Кбит/сек
Каналы : 6 каналов
Расположение каналов : Front: L C R, Side: L R, LFE
Частота : 48,0 КГц
Частота кадров : 31,250 кадров/сек (1536 SPF)
Битовая глубина : 16 бит
Метод сжатия : С потерями
Размер потока : 468 Мбайт (8%)
Язык : English
Default : Нет
Forced : Нет

Текст #1
Идентификатор : 6
Формат : UTF-8
Идентификатор кодека : S_TEXT/UTF8
Идентификатор кодека/Информация : UTF-8 Plain Text
Заголовок : forced
Язык : Russian
Default : Нет
Forced : Нет

Текст #2
Идентификатор : 7
Формат : UTF-8
Идентификатор кодека : S_TEXT/UTF8
Идентификатор кодека/Информация : UTF-8 Plain Text
Заголовок : full
Язык : Russian
Default : Нет
Forced : Нет

Текст #3
Идентификатор : 8
Формат : UTF-8
Идентификатор кодека : S_TEXT/UTF8
Идентификатор кодека/Информация : UTF-8 Plain Text
Заголовок : SDH, full
Язык : English
Default : Нет
Forced : Нет

Меню
00:00:00.000 : en:00:00:00.000
00:08:23.920 : en:00:08:23.920
00:16:19.937 : en:00:16:19.937
00:24:40.896 : en:00:24:40.896
00:34:26.564 : en:00:34:26.564
00:43:37.657 : en:00:43:37.657
00:50:44.250 : en:00:50:44.250
01:00:41.596 : en:01:00:41.596
01:10:21.008 : en:01:10:21.008
01:19:05.699 : en:01:19:05.699
01:27:58.857 : en:01:27:58.857
01:36:17.855 : en:01:36:17.855


Релиз от :
Zina
Аватара пользователя
 
Раздал: 0 байт
Скачал: 0 байт
Ратио: Inf.
Сообщения: 325
Зарегистрирован: 01 июл 2014, 16:52
  • Торрент
Автор: Zina Хэш: ---
Добавлен: 14 ноя 2020, 23:39 Приватный: Нет (DHT включён)
Статус: Проверен
Размер: 5.8 ГБ (6 226 217 509 байт)
Изменил:
---
Скачали: 0 (Раздающих: 0%)
Причина:
---
Здоровье: 0%
Сидеров: 0 Личеров: 0
Скорость раздачи: 0 байт/сек Скорость скачивания: 0 байт/сек
Последний сидер: Нет Последний личер: Нет
Для скачивания торрента необходимо зарегистрироваться или войти на трекер.

Форум Статистика

Кто сейчас на конференции

Сейчас этот форум просматривают: нет зарегистрированных пользователей и гости: 2

  • Похожие торренты
    Ответы
    Просмотры
    Последнее сообщение

Настройки

Вернуться в Фильмы / HDTV / HD / Blu-Ray

cron
Ресурс не предоставляет электронные версии произведений, а занимается лишь коллекционированием и каталогизацией ссылок, присылаемых и публикуемых на форуме нашими читателями. Если вы являетесь правообладателем какого-либо представленного материала и не желаете чтобы ссылка на него находилась в нашем каталоге, свяжитесь с нами и мы незамедлительно удалим её. Файлы для обмена на трекере предоставлены пользователями сайта, и администрация не несёт ответственности за их содержание. Просьба не заливать файлы, защищенные авторскими правами, а также файлы нелегального содержания!
tracker_cron