Модераторы: K15, Младшие модераторы, Модераторы

Оргазмо / Orgasmo (1969) BDRip 720p от msltel | L1 | USA Transfer

Сообщение 7Max7 » 11 ноя 2020, 16:49

#777
Название: Оргазмо
Оригинальное название: Orgasmo
Год выпуска: 1969
Страна: Италия, Франция
Продолжительность: 01:37:01
Жанр: ужасы, драма, мелодрама, триллер

Режиссер: Умберто Ленци

В ролях:
Кэрролл Бэйкер, Лу Кастель, Колетт Декомб, Тино Карраро, Лилла Бриньоне, Франко Пеше, Тина Латтанци, Жак Стани, Сара Симони, Гаэтано Имбро

О фильме:
Очаровательная вдова-американка Кэтрин Уэст прибывает в Италию через несколько недель после смерти своего пожилого богатого мужа и на шикарной вилле начинает вести уединённый образ жизни. Но однажды в дверь виллы стучится красивый молодой человек Питер, который просит инструменты, чтобы починить свою машину. Кэтрин разрешает Питеру остаться переночевать на вилле и, естественно, отдаётся ему. Вскоре Питер полностью осваивается на вилле моложавой и богатой вдовы. Однажды молодого человека навещает сестра Ева. Кэтрин наслаждается обществом культурных молодых людей и устраивает шикарные вечеринки. Но вскоре она начинает подозревать, что Питер и Ева вовсе не те, за кого себя выдают...



Качество: BDRip 720p
Формат: MKV
Видео: MPEG-4 AVC, 6730 Кбит/с, 1280x544, 23.976 кадр/с
Аудио 1: русский, AC3, 224 kbps, 2 ch, 48 kHz [закадровый одноголосый, Andi]
Аудио 2: итальянский, DTS, 1509 kbps, 2 ch, 48 kHz [оригинал]
Субтитры 1: русские (SRT)
Субтитры 2: английские (SRT)
Главы/чаптеры
Общее
Уникальный идентификатор : 224886186894216124468472824815122837260 (0xA92F810F70F05BAF83FBD7F06AB2EF0C)
Полное имя : D:VideoOrgasmo.1969.USA Transfer.BDRip 720p msltel.mkv
Формат : Matroska
Версия формата : Version 4
Размер файла : 5,74 Гбайт
Продолжительность : 1 ч. 37 м.
Общий поток : 8 443 Кбит/сек
Название фильма : Orgasmo.1969.USA Transfer.BDRip msltel
Дата кодирования : UTC 2020-11-03 03:14:40
Программа кодирования : mkvmerge v8.2.0 ('World of Adventure') 64bit
Библиотека кодирования : libebml v1.3.1 + libmatroska v1.4.2

Видео
Идентификатор : 1
Формат : AVC
Формат/Информация : Advanced Video Codec
Профиль формата : High@L4.1
Настройки формата : CABAC / 12 Ref Frames
Параметр CABAC формата : Да
Параметр RefFrames формата : 12 кадров
Идентификатор кодека : V_MPEG4/ISO/AVC
Продолжительность : 1 ч. 37 м.
Битрейт : 6 730 Кбит/сек
Ширина : 1 280 пикселей
Высота : 544 пикселя
Соотношение сторон : 2,35:1
Режим частоты кадров : Постоянный
Частота кадров : 23,976 (24000/1001) кадра/сек
Цветовое пространство : YUV
Субдискретизация насыщенности : 4:2:0
Битовая глубина : 8 бит
Тип развёртки : Прогрессивная
Бит/(Пиксели*Кадры) : 0.403
Размер потока : 4,56 Гбайт (79%)
Библиотека кодирования : x264 core 157 r2969 d4099dd
Настройки программы : cabac=1 / ref=12 / deblock=1:-2:-2 / analyse=0x3:0x113 / me=umh / subme=10 / psy=1 / psy_rd=1.10:0.00 / mixed_ref=1 / me_range=32 / chroma_me=1 / trellis=2 / 8x8dct=1 / cqm=0 / deadzone=21,11 / fast_pskip=0 / chroma_qp_offset=-2 / threads=6 / lookahead_threads=1 / sliced_threads=0 / nr=0 / decimate=0 / interlaced=0 / bluray_compat=0 / constrained_intra=0 / bframes=12 / b_pyramid=2 / b_adapt=2 / b_bias=0 / direct=1 / weightb=1 / open_gop=0 / weightp=2 / keyint=230 / keyint_min=23 / scenecut=40 / intra_refresh=0 / rc_lookahead=40 / rc=crf / mbtree=0 / crf=17.0 / qcomp=0.60 / qpmin=0 / qpmax=69 / qpstep=4 / vbv_maxrate=62500 / vbv_bufsize=78125 / crf_max=0.0 / nal_hrd=none / filler=0 / ip_ratio=1.40 / pb_ratio=1.30 / aq=2:0.90
Язык : Italian
Default : Да
Forced : Нет

Аудио #1
Идентификатор : 2
Формат : AC-3
Формат/Информация : Audio Coding 3
Коммерческое название : Dolby Digital
Идентификатор кодека : A_AC3
Продолжительность : 1 ч. 37 м.
Вид битрейта : Постоянный
Битрейт : 224 Кбит/сек
Каналы : 2 канала
Channel layout : L R
Частота : 48,0 КГц
Частота кадров : 31,250 кадров/сек (1536 SPF)
Метод сжатия : С потерями
Размер потока : 155 Мбайт (3%)
Заголовок : Andi
Язык : Russian
Service kind : Complete Main
Default : Да
Forced : Нет

Аудио #2
Идентификатор : 3
Формат : DTS
Формат/Информация : Digital Theater Systems
Идентификатор кодека : A_DTS
Продолжительность : 1 ч. 37 м.
Вид битрейта : Постоянный
Битрейт : 1 509 Кбит/сек
Каналы : 2 канала
Channel layout : L R
Частота : 48,0 КГц
Частота кадров : 93,750 кадра/сек (512 SPF)
Битовая глубина : 24 бит
Метод сжатия : С потерями
Размер потока : 1,03 Гбайт (18%)
Заголовок : оригинал
Язык : Italian
Default : Нет
Forced : Нет

Текст #1
Идентификатор : 4
Формат : UTF-8
Идентификатор кодека : S_TEXT/UTF8
Идентификатор кодека/Информация : UTF-8 Plain Text
Продолжительность : 1 ч. 35 м.
Битрейт : 72 бит/сек
Count of elements : 866
Размер потока : 50,7 Кбайт (0%)
Заголовок : русские ССК+
Язык : Russian
Default : Нет
Forced : Нет

Текст #2
Идентификатор : 5
Формат : UTF-8
Идентификатор кодека : S_TEXT/UTF8
Идентификатор кодека/Информация : UTF-8 Plain Text
Продолжительность : 1 ч. 36 м.
Битрейт : 44 бит/сек
Count of elements : 790
Размер потока : 31,4 Кбайт (0%)
Заголовок : английские
Язык : English
Default : Нет
Forced : Нет

Меню
00:00:00.000 : :
00:08:36.683 : :
00:18:25.604 : :
00:29:38.777 : :
00:38:00.695 : :
00:46:52.810 : :
00:56:12.035 : :
01:04:13.516 : :
01:12:23.965 : :
01:35:47.700 : :

7Max7
Аватара пользователя
 
Раздал: 491.04 ГБ
Скачал: 3 ГБ
Ратио: 163.468
Сообщения: 413
Зарегистрирован: 14 фев 2014, 18:28
  • Торрент
Автор: 7Max7 Хэш: ---
Добавлен: 11 ноя 2020, 16:49 Приватный: Нет (DHT включён)
Статус: Проверен
Размер: 5.74 ГБ (6 162 938 183 байт)
Изменил:
---
Скачали: 116 (Раздающих: 0%)
Причина:
---
Здоровье: 100%
Сидеров: 3 Личеров: 0
Скорость раздачи: 0 байт/сек Скорость скачивания: 0 байт/сек
Последний сидер: 2 дня 13 часов 32 минуты 36 секунд назад Последний личер: Нет
Для скачивания торрента необходимо зарегистрироваться или войти на трекер.

Форум Статистика

Кто сейчас на конференции

Сейчас этот форум просматривают: нет зарегистрированных пользователей и гости: 4

  • Похожие торренты
    Ответы
    Просмотры
    Последнее сообщение

Настройки

Вернуться в Фильмы / HDTV / HD / Blu-Ray

cron
Ресурс не предоставляет электронные версии произведений, а занимается лишь коллекционированием и каталогизацией ссылок, присылаемых и публикуемых на форуме нашими читателями. Если вы являетесь правообладателем какого-либо представленного материала и не желаете чтобы ссылка на него находилась в нашем каталоге, свяжитесь с нами и мы незамедлительно удалим её. Файлы для обмена на трекере предоставлены пользователями сайта, и администрация не несёт ответственности за их содержание. Просьба не заливать файлы, защищенные авторскими правами, а также файлы нелегального содержания!