Модераторы: K15, Младшие модераторы, Модераторы

Синистер / Sinister (2012) BDRip 720p от HELLYWOOD

Сообщение 7Max7 » 11 ноя 2020, 16:49

Синистер / Sinister
«Увидевший его не спасётся»


#777

Информация о фильме:
Год выпуска: 2012
Страна: США, Великобритания
Продолжительность: 01:49:38
Перевод: Профессиональный (полное дублирование)
Оригинальная звуковая дорожка
Субтитры: Русские [Full], Английские [Full, SDH, SDH-Color]
Жанр: ужасы, триллер, детектив

Режиссёр: Скотт Дерриксон / Scott Derrickson

В ролях: Итан Хоук, Джульет Райлэнс, Фред Долтон Томпсон, Джеймс Рэнсон, Майкл Холл Д’Аддарио, Клер Фоли, Роб Райли, Тэвис Смайли, Джанет Заппала, Виктория Ли

Описание:
Вместе с семьей автор детективов поселяется в небольшом городке, в доме, где почти год назад развернулась леденящая душу трагедия - были убиты все жильцы. Писатель случайно находит видеозаписи, которые являются ключом к тайне преступления. Но ничто не дается даром: в доме начинают происходить жуткие вещи и теперь под угрозой жизнь его близких. Они столкнулись с чем-то, от чего нет спасения...

Скачать: Семпл

Файл:
Формат: MKV
Качество: BDRip 720p (Исходник: BLUEBIRD /Blu-ray /1080p)
Видео: 1280x534 at 23.976 fps, x264@L4.1, 2pass, ~5516 kbps avg
Аудио #1: 48 kHz, AC3 Dolby Digital, 3/2 (L,C,R,l,r) + LFE ch, ~448 kbps |DUB|
Аудио #2: 48 kHz, AC3 Dolby Digital, 3/2 (L,C,R,l,r) + LFE ch, ~640 kbps |ENG|

General
Unique ID : 184200261036715877851369882882016298309 (0x8A93AE0A9D2A3C83999223FB25A04545)
Complete name : C:Sinister.2012.BDRip.720p.DUAL.-HELLYWOOD.mkv
Format : Matroska
Format version : Version 2
File size : 5.06 GiB
Duration : 1h 49mn
Overall bit rate : 6 606 Kbps
Movie name : Sinister (2012) - http://hellywood.ru/
Encoded date : UTC 2013-11-05 07:07:40
Writing application : mkvmerge v6.5.0 ('Isn't she lovely') built on Oct 20 2013 12:50:05
Writing library : libebml v1.3.0 + libmatroska v1.4.1

Video
ID : 1
Format : AVC
Format/Info : Advanced Video Codec
Format profile : High@L4.1
Format settings, CABAC : Yes
Format settings, ReFrames : 12 frames
Codec ID : V_MPEG4/ISO/AVC
Duration : 1h 49mn
Bit rate : 5 516 Kbps
Width : 1 280 pixels
Height : 534 pixels
Display aspect ratio : 2.40:1
Frame rate mode : Constant
Frame rate : 23.976 fps
Color space : YUV
Chroma subsampling : 4:2:0
Bit depth : 8 bits
Scan type : Progressive
Bits/(Pixel*Frame) : 0.337
Stream size : 4.13 GiB (82%)
Title : serokuz74
Writing library : x264 core 138 r2358kMod 9e941d1
Encoding settings : cabac=1 / ref=12 / deblock=1:-3:-3 / analyse=0x3:0x133 / me=umh / subme=11 / psy=1 / fade_compensate=0.00 / psy_rd=1.05:0.00 / mixed_ref=1 / me_range=64 / chroma_me=1 / trellis=2 / 8x8dct=1 / cqm=0 / deadzone=21,11 / fast_pskip=0 / chroma_qp_offset=-2 / threads=12 / lookahead_threads=2 / sliced_threads=0 / nr=0 / decimate=0 / interlaced=0 / bluray_compat=0 / constrained_intra=0 / bframes=14 / b_pyramid=2 / b_adapt=2 / b_bias=0 / direct=3 / weightb=1 / open_gop=0 / weightp=2 / keyint=250 / keyint_min=23 / scenecut=40 / intra_refresh=0 / rc_lookahead=60 / rc=2pass / mbtree=0 / bitrate=5516 / ratetol=1.0 / qcomp=0.80 / qpmin=0 / qpmax=69 / qpstep=4 / cplxblur=20.0 / qblur=0.5 / vbv_maxrate=50000 / vbv_bufsize=62500 / nal_hrd=none / ip_ratio=1.35 / pb_ratio=1.25 / aq=2:0.80
Language : English
Default : Yes
Forced : No
Matrix coefficients : BT.709

Audio #1
ID : 2
Format : AC-3
Format/Info : Audio Coding 3
Mode extension : CM (complete main)
Format settings, Endianness : Big
Codec ID : A_AC3
Duration : 1h 49mn
Bit rate mode : Constant
Bit rate : 448 Kbps
Channel(s) : 6 channels
Channel positions : Front: L C R, Side: L R, LFE
Sampling rate : 48.0 KHz
Bit depth : 16 bits
Compression mode : Lossy
Stream size : 351 MiB (7%)
Title : AC3 5.1 @ 448 kbps - DUB, R5
Language : Russian
Default : Yes
Forced : No

Audio #2
ID : 3
Format : AC-3
Format/Info : Audio Coding 3
Mode extension : CM (complete main)
Format settings, Endianness : Big
Codec ID : A_AC3
Duration : 1h 49mn
Bit rate mode : Constant
Bit rate : 640 Kbps
Channel(s) : 6 channels
Channel positions : Front: L C R, Side: L R, LFE
Sampling rate : 48.0 KHz
Bit depth : 16 bits
Compression mode : Lossy
Stream size : 502 MiB (10%)
Title : AC3 5.1 @ 640 kbps - Original
Language : English
Default : No
Forced : No

Text #1
ID : 4
Format : UTF-8
Codec ID : S_TEXT/UTF8
Codec ID/Info : UTF-8 Plain Text
Title : Full
Language : Russian
Default : No
Forced : No

Text #2
ID : 5
Format : UTF-8
Codec ID : S_TEXT/UTF8
Codec ID/Info : UTF-8 Plain Text
Title : Full
Language : English
Default : No
Forced : No

Text #3
ID : 6
Format : UTF-8
Codec ID : S_TEXT/UTF8
Codec ID/Info : UTF-8 Plain Text
Title : Full @ SDH
Language : English
Default : No
Forced : No

Text #4
ID : 7
Format : UTF-8
Codec ID : S_TEXT/UTF8
Codec ID/Info : UTF-8 Plain Text
Title : Full @ SDH-Color
Language : English
Default : No
Forced : No

Menu
00:00:00.000 : en:00:00:00.000
00:10:40.557 : en:00:10:40.557
00:19:05.311 : en:00:19:05.311
00:27:08.168 : en:00:27:08.168
00:36:58.508 : en:00:36:58.508
00:46:35.334 : en:00:46:35.334
00:56:30.095 : en:00:56:30.095
01:07:13.363 : en:01:07:13.363
01:17:03.702 : en:01:17:03.702
01:26:15.754 : en:01:26:15.754
01:33:34.567 : en:01:33:34.567
01:43:08.099 : en:01:43:08.099

x264 [info]: frame I:1069 Avg QP:11.99 size:109227
x264 [info]: frame P:29917 Avg QP:14.43 size: 49923
x264 [info]: frame B:126743 Avg QP:16.04 size: 23083
x264 [info]: consecutive B-frames: 1.6% 1.9% 5.8% 9.1% 14.9% 44.6% 8.5% 2.2% 2.7% 1.5% 1.7% 1.5% 1.5% 1.8% 1.0%
x264 [info]: mb I I16..4: 7.7% 76.9% 15.4%
x264 [info]: mb P I16..4: 0.7% 17.0% 1.3% P16..4: 20.6% 28.8% 16.5% 3.0% 0.2% skip:11.8%
x264 [info]: mb B I16..4: 0.1% 4.0% 0.2% B16..8: 29.1% 24.3% 7.3% direct: 7.6% skip:27.4% L0:47.7% L1:39.4% BI:13.0%
x264 [info]: 8x8 transform intra:90.3% inter:52.0%
x264 [info]: direct mvs spatial:98.2% temporal:1.8%
x264 [info]: coded y,uvDC,uvAC intra: 92.2% 83.5% 73.6% inter: 36.4% 28.3% 13.8%
x264 [info]: i16 v,h,dc,p: 51% 12% 11% 26%
x264 [info]: i8 v,h,dc,ddl,ddr,vr,hd,vl,hu: 12% 8% 13% 9% 12% 11% 11% 11% 13%
x264 [info]: i4 v,h,dc,ddl,ddr,vr,hd,vl,hu: 21% 7% 9% 8% 12% 11% 10% 10% 11%
x264 [info]: i8c dc,h,v,p: 52% 20% 14% 13%
x264 [info]: Weighted P-Frames: Y:9.7% UV:5.3%
x264 [info]: ref P L0: 39.8% 5.8% 16.5% 9.2% 7.1% 5.6% 4.9% 3.1% 2.5% 2.1% 1.8% 1.4% 0.2% 0.0%
x264 [info]: ref B L0: 58.2% 16.3% 8.3% 4.9% 3.7% 2.8% 2.3% 1.5% 1.2% 0.6% 0.2%
x264 [info]: ref B L1: 90.4% 9.6%

Скриншоты:




Релиз от:
Автор рипа: serokuz74
7Max7
Аватара пользователя
 
Раздал: 491.04 ГБ
Скачал: 3 ГБ
Ратио: 163.468
Сообщения: 413
Зарегистрирован: 14 фев 2014, 18:28
  • Торрент
Автор: 7Max7 Хэш: ---
Добавлен: 11 ноя 2020, 16:49 Приватный: Нет (DHT включён)
Статус: Проверен
Размер: 5.06 ГБ (5 432 708 544 байт)
Изменил:
---
Скачали: 103 (Раздающих: 0%)
Причина:
---
Здоровье: 100%
Сидеров: 10 Личеров: 2
Скорость раздачи: 0 байт/сек Скорость скачивания: 0 байт/сек
Последний сидер: 2 дня 14 часов 26 минут 19 секунд назад Последний личер: 2 дня 14 часов 26 минут 19 секунд назад
Для скачивания торрента необходимо зарегистрироваться или войти на трекер.

Форум Статистика

Кто сейчас на конференции

Сейчас этот форум просматривают: нет зарегистрированных пользователей и гости: 4

  • Похожие торренты
    Ответы
    Просмотры
    Последнее сообщение

Настройки

Вернуться в Фильмы / HDTV / HD / Blu-Ray

cron
Ресурс не предоставляет электронные версии произведений, а занимается лишь коллекционированием и каталогизацией ссылок, присылаемых и публикуемых на форуме нашими читателями. Если вы являетесь правообладателем какого-либо представленного материала и не желаете чтобы ссылка на него находилась в нашем каталоге, свяжитесь с нами и мы незамедлительно удалим её. Файлы для обмена на трекере предоставлены пользователями сайта, и администрация не несёт ответственности за их содержание. Просьба не заливать файлы, защищенные авторскими правами, а также файлы нелегального содержания!
tracker_cron