Модераторы: K15, Младшие модераторы, Модераторы

Ужасные истории: Древние римляне / Horrible Histories: The Movie - Rotten Romans (2019) BDRip 720p от селезень | iTunes

Сообщение 7Max7 » 11 ноя 2020, 16:49

#777

Информация о фильме
Название: Ужасные истории: Древние римляне / Ужасные истории: Фильм - Извращённые римляне
Оригинальное название: Horrible Histories: The Movie - Rotten Romans
Год выхода: 2019
Страна: Великобритания
Студия: Altitude Films, BBC Films, Citrus Films, Stavingoh Films
Продолжительность: 01:32:12
Перевод: Дублированный | iTunes
Жанр: Комедия, история

Режиссер: Доминик Бригсток

В ролях: Себастьян Крофт, Эмилия Джонс, Ник Фрост, Крэйг Робертс, Кейт Нэш, Руперт Грейвз, Алекс МакКуин, Ли Мак, Уорвик Дэвис, Санджив Бхаскар

О фильме:
Рим. Начало нашей эры. Умный и пронырливый подросток Атти попадает в немилость императора Нерона и за это отправляется проходить службу в богом забытую Британию как раз в тот момент, когда воительница Будика поднимает восстание на острове и пытается объединить разрозненные кланы. Атти оказывается в центре заварушки, выбраться из которой ему помогают его новые друзья.



Качество: BDRip 720p
Видео: MPEG-4 AVC, 1280x640, 5000 Kbit/s, 24.000 fps
Аудио #01: 48 kHz, AC3, 5.1, 384 Kbps | iTunes | RUS |
Аудио #02: 48 kHz, AC3, 5.1, 640 Kbps | Оригинал | ENG |
Субтитры: Английские



General
Unique ID : 177443046702768463252818491919957825079 (0x857E49A7276783DB7D5BB423A66D1637)
Complete name : D:Video111Horrible.Histories.the.Movie.Rotten.Romans.2019.BDRip.720p.seleZen.mkv
Format : Matroska
Format version : Version 4
File size : 3.88 GiB
Duration : 1 h 32 min
Overall bit rate : 6 025 kb/s
Movie name : Horrible Histories the Movie Rotten Romans 2019 from селезень
Encoded date : UTC 2020-11-02 23:40:16
Writing application : mkvmerge v40.0.0 ('Old Town Road + Pony') 64-bit
Writing library : libebml v1.3.9 + libmatroska v1.5.2

Video
ID : 1
Format : AVC
Format/Info : Advanced Video Codec
Format profile : High@L4.1
Format settings : CABAC / 10 Ref Frames
Format settings, CABAC : Yes
Format settings, Reference : 10 frames
Codec ID : V_MPEG4/ISO/AVC
Duration : 1 h 32 min
Bit rate : 5 000 kb/s
Width : 1 280 pixels
Height : 640 pixels
Display aspect ratio : 2.000
Frame rate mode : Constant
Frame rate : 24.000 FPS
Color space : YUV
Chroma subsampling : 4:2:0
Bit depth : 8 bits
Scan type : Progressive
Bits/(Pixel*Frame) : 0.254
Stream size : 3.22 GiB (83%)
Title : Encoded by seleZen
Writing library : x264 core 157 r2935 545de2f
Encoding settings : cabac=1 / ref=10 / deblock=1:-2:-2 / analyse=0x3:0x133 / me=umh / subme=10 / psy=1 / psy_rd=1.00:0.00 / mixed_ref=1 / me_range=32 / chroma_me=1 / trellis=2 / 8x8dct=1 / cqm=0 / deadzone=21,11 / fast_pskip=0 / chroma_qp_offset=-2 / threads=20 / lookahead_threads=3 / sliced_threads=0 / nr=0 / decimate=0 / interlaced=0 / bluray_compat=0 / constrained_intra=0 / bframes=8 / b_pyramid=2 / b_adapt=2 / b_bias=0 / direct=3 / weightb=1 / open_gop=0 / weightp=2 / keyint=240 / keyint_min=24 / scenecut=40 / intra_refresh=0 / rc_lookahead=40 / rc=2pass / mbtree=0 / bitrate=5000 / ratetol=1.0 / qcomp=0.60 / qpmin=0 / qpmax=51 / qpstep=4 / cplxblur=20.0 / qblur=0.5 / vbv_maxrate=50000 / vbv_bufsize=62500 / nal_hrd=none / filler=0 / ip_ratio=1.40 / pb_ratio=1.30 / aq=1:1.00
Language : English
Default : Yes
Forced : No
Color range : Limited
Color primaries : BT.709
Transfer characteristics : BT.709
Matrix coefficients : BT.709

Audio #1
ID : 2
Format : AC-3
Format/Info : Audio Coding 3
Commercial name : Dolby Digital
Codec ID : A_AC3
Duration : 1 h 32 min
Bit rate mode : Constant
Bit rate : 384 kb/s
Channel(s) : 6 channels
Channel layout : L R C LFE Ls Rs
Sampling rate : 48.0 kHz
Frame rate : 31.250 FPS (1536 SPF)
Compression mode : Lossy
Stream size : 253 MiB (6%)
Title : iTunes
Language : Russian
Service kind : Complete Main
Default : Yes
Forced : Yes

Audio #2
ID : 3
Format : AC-3
Format/Info : Audio Coding 3
Commercial name : Dolby Digital
Codec ID : A_AC3
Duration : 1 h 32 min
Bit rate mode : Constant
Bit rate : 640 kb/s
Channel(s) : 6 channels
Channel layout : L R C LFE Ls Rs
Sampling rate : 48.0 kHz
Frame rate : 31.250 FPS (1536 SPF)
Compression mode : Lossy
Stream size : 422 MiB (11%)
Title : Original
Language : English
Service kind : Complete Main
Default : No
Forced : No

Text
ID : 4
Format : UTF-8
Codec ID : S_TEXT/UTF8
Codec ID/Info : UTF-8 Plain Text
Duration : 1 h 31 min
Bit rate : 76 b/s
Count of elements : 1807
Stream size : 51.5 KiB (0%)
Title : SDH
Language : English
Default : No
Forced : No

Menu
00:00:00.000 : en:Chapter 1
00:06:59.333 : en:Chapter 2
00:12:28.875 : en:Chapter 3
00:19:38.708 : en:Chapter 4
00:27:14.083 : en:Chapter 5
00:32:39.916 : en:Chapter 6
00:39:45.750 : en:Chapter 7
00:45:00.666 : en:Chapter 8
00:52:32.208 : en:Chapter 9
01:03:11.041 : en:Chapter 10
01:16:00.666 : en:Chapter 11
01:25:10.875 : en:Chapter 12


Релиз:
7Max7
Аватара пользователя
 
Раздал: 491.04 ГБ
Скачал: 3 ГБ
Ратио: 163.468
Сообщения: 413
Зарегистрирован: 14 фев 2014, 18:28
  • Торрент
Автор: 7Max7 Хэш: ---
Добавлен: 11 ноя 2020, 16:49 Приватный: Нет (DHT включён)
Статус: Проверен
Размер: 3.88 ГБ (4 166 983 255 байт)
Изменил:
---
Скачали: 2231 (Раздающих: 0%)
Причина:
---
Здоровье: 100%
Сидеров: 265 Личеров: 2
Скорость раздачи: 0 байт/сек Скорость скачивания: 0 байт/сек
Последний сидер: 9 дней 1 час 41 минуту 5 секунд назад Последний личер: 9 дней 1 час 41 минуту 5 секунд назад
Для скачивания торрента необходимо зарегистрироваться или войти на трекер.

Форум Статистика

Кто сейчас на конференции

Сейчас этот форум просматривают: нет зарегистрированных пользователей и гости: 2

  • Похожие торренты
    Ответы
    Просмотры
    Последнее сообщение

Настройки

Вернуться в Фильмы / HDTV / HD / Blu-Ray

cron
Ресурс не предоставляет электронные версии произведений, а занимается лишь коллекционированием и каталогизацией ссылок, присылаемых и публикуемых на форуме нашими читателями. Если вы являетесь правообладателем какого-либо представленного материала и не желаете чтобы ссылка на него находилась в нашем каталоге, свяжитесь с нами и мы незамедлительно удалим её. Файлы для обмена на трекере предоставлены пользователями сайта, и администрация не несёт ответственности за их содержание. Просьба не заливать файлы, защищенные авторскими правами, а также файлы нелегального содержания!
tracker_cron