Модераторы: K15, Младшие модераторы, Модераторы

Борат 2 / Borat Subsequent Moviefilm (2020) WEB-DLRip 720p от OlLanDGroup | HDrezka Studio

Сообщение 7Max7 » 11 ноя 2020, 16:49

#777
Информация о фильме
Название: Борат 2
Оригинальное название: Borat Subsequent Moviefilm: Delivery of Prodigious Bribe to American Regime for Make Benefit Once Glorious Nation of Kazakhstan
Год выпуска: 2020
Выпущено: Великобритания, США, Four by Two Films
Продолжительность: 01:36:05
Перевод: Профессиональный многоголосый
Субтитры: Русские
Озвучивание - Профессиональное многоголосое (HDrezka Studio)
Жанр: Комедия

Режиссер: Джейсон Уолинер

В ролях: Саша Барон Коэн, Мария Бакалова, Николета Чобану, Том Хэнкс, Рудольф В. Джулиани, Луэнелль, Майк Пенс

О фильме:
Сюжетная линия фильма «Борат 2» продолжает историю знаменитого казахского репортера Бората Сагдиева, который после прошлых своих похождений стал настоящей звездой. Теперь ему проблематично брать интервью у известных личностей, так как и сам он далеко не рядовой гражданин, и постоянно привлекает внимание прохожих. Как же тут охотиться за очередным сюжетом? Выход из ситуации Борат находит быстро – он будет маскироваться, выдавая себя за других людей. Переодевшись репортер отправляется в США, где его ждут встречи с самыми известными политическими деятелями, представителями эстрады и кино, и никто из них не будет знать, с кем ведется общение. В путешествие Борат возьмет свою дочь, которая считает папу настоящим героем. Вместе им придется столкнуться с массой нелепых ситуаций и показать, что прославленному журналисту даже коронавирус не помеха.



Качество: WEB-DLRip (720p)
Видео: MPEG-4 AVC, 3585 Kбит/с, 1280x720, 23.976 кадр/с
Аудио: Русский (AC3, 6 ch, 448 Кбит/с)
Размер: 2.71 ГБ

x264 [info]: frame I:1446 Avg QP:14.16 size:121026
x264 [info]: frame P:29907 Avg QP:17.29 size: 38607
x264 [info]: frame B:106860 Avg QP:17.88 size: 11729
x264 [info]: consecutive B-frames: 2.9% 3.0% 6.2% 13.4% 36.8% 20.9% 6.3% 3.1% 5.8% 1.1% 0.7%
x264 [info]: mb I I16..4: 6.6% 80.3% 13.1%
x264 [info]: mb P I16..4: 0.5% 12.0% 0.8% P16..4: 32.2% 35.7% 11.8% 1.4% 0.1% skip: 5.4%
x264 [info]: mb B I16..4: 0.1% 0.7% 0.1% B16..8: 34.2% 21.2% 3.3% direct: 4.9% skip:35.6% L0:40.6% L1:47.2% BI:12.2%
x264 [info]: 8x8 transform intra:87.4% inter:57.6%
x264 [info]: direct mvs spatial:99.3% temporal:0.7%
x264 [info]: coded y,uvDC,uvAC intra: 92.6% 82.4% 58.1% inter: 22.9% 18.3% 7.9%
x264 [info]: i16 v,h,dc,p: 33% 12% 9% 46%
x264 [info]: i8 v,h,dc,ddl,ddr,vr,hd,vl,hu: 10% 9% 9% 9% 12% 12% 12% 12% 13%
x264 [info]: i4 v,h,dc,ddl,ddr,vr,hd,vl,hu: 12% 12% 6% 8% 14% 13% 13% 10% 11%
x264 [info]: i8c dc,h,v,p: 44% 24% 18% 14%
x264 [info]: Weighted P-Frames: Y:2.0% UV:0.8%
x264 [info]: ref P L0: 49.1% 9.5% 20.5% 5.5% 5.2% 2.8% 3.1% 1.4% 1.6% 1.2% 0.1% 0.0%
x264 [info]: ref B L0: 76.5% 12.5% 4.4% 2.4% 1.4% 1.3% 0.9% 0.4% 0.2%
x264 [info]: ref B L1: 93.5% 6.5%
x264 [info]: kb/s:3584.61

Общее
Уникальный идентификатор : 198430838186417493532914729949301760775 (0x954863AA2B0389968670D2BDC47AE307)
Полное имя : D:ЗагрузкиBorat.Subsequent.Moviefilm.2020.x264.WEB-DLRip.(720p).OlLanDGroup.mkv
Формат : Matroska
Версия формата : Version 4 / Version 2
Размер файла : 2,71 Гбайт
Продолжительность : 1 ч. 36 м.
Общий поток : 4035 Кбит/сек
Название фильма : Борат2.2020.Rip by: ollan
Дата кодирования : UTC 2020-11-02 21:25:55
Программа кодирования : mkvmerge v6.5.0 ('Isn't she lovely') built on Oct 20 2013 12:50:05
Библиотека кодирования : libebml v1.3.0 + libmatroska v1.4.1
Обложка : Yes
Attachments : Cover - Borat.Subsequent.Moviefilm.png

Видео
Идентификатор : 1
Формат : AVC
Формат/Информация : Advanced Video Codec
Профиль формата : High@L4.1
Настройки формата : CABAC / 10 Ref Frames
Параметр CABAC формата : Да
Параметр ReFrames формата : 10 кадров
Идентификатор кодека : V_MPEG4/ISO/AVC
Продолжительность : 1 ч. 36 м.
Битрейт : 3585 Кбит/сек
Ширина : 1280 пикселей
Высота : 720 пикселей
Соотношение сторон : 16:9
Режим частоты кадров : Постоянный
Частота кадров : 23,976 (24000/1001) кадра/сек
Цветовое пространство : YUV
Субдискретизация насыщенности : 4:2:0
Битовая глубина : 8 бит
Тип развёртки : Прогрессивная
Бит/(Пиксели*Кадры) : 0.162
Размер потока : 2,35 Гбайт (87%)
Библиотека кодирования : x264 core 146 r2538 121396c
Настройки программы : cabac=1 / ref=10 / deblock=1:-3:-3 / analyse=0x3:0x133 / me=umh / subme=11 / psy=1 / psy_rd=0.95:0.05 / mixed_ref=1 / me_range=64 / chroma_me=1 / trellis=2 / 8x8dct=1 / cqm=0 / deadzone=21,11 / fast_pskip=0 / chroma_qp_offset=-3 / threads=12 / lookahead_threads=3 / sliced_threads=0 / nr=0 / decimate=0 / interlaced=0 / bluray_compat=0 / constrained_intra=0 / bframes=10 / b_pyramid=2 / b_adapt=2 / b_bias=0 / direct=3 / weightb=1 / open_gop=0 / weightp=2 / keyint=240 / keyint_min=23 / scenecut=40 / intra_refresh=0 / rc_lookahead=40 / rc=2pass / mbtree=0 / bitrate=3585 / ratetol=1.0 / qcomp=0.60 / qpmin=0 / qpmax=69 / qpstep=4 / cplxblur=20.0 / qblur=0.5 / vbv_maxrate=50000 / vbv_bufsize=62500 / nal_hrd=none / filler=0 / ip_ratio=1.40 / pb_ratio=1.30 / aq=1:1.00
Язык : English
Default : Да
Forced : Нет

Аудио
Идентификатор : 2
Формат : AC-3
Формат/Информация : Audio Coding 3
Идентификатор кодека : A_AC3
Продолжительность : 1 ч. 36 м.
Вид битрейта : Постоянный
Битрейт : 448 Кбит/сек
Каналы : 6 каналов
Расположение каналов : Front: L C R, Side: L R, LFE
Частота : 48,0 КГц
Частота кадров : 31,250 кадров/сек (1536 SPF)
Битовая глубина : 16 бит
Метод сжатия : С потерями
Размер потока : 308 Мбайт (11%)
Заголовок : HDRezka Studio
Язык : Russian
Service kind : Complete Main
Default : Да
Forced : Нет

Текст #1
Идентификатор : 3
Формат : UTF-8
Идентификатор кодека : S_TEXT/UTF8
Идентификатор кодека/Информация : UTF-8 Plain Text
Заголовок : Forced
Язык : Russian
Default : Да
Forced : Нет

Текст #2
Идентификатор : 4
Формат : UTF-8
Идентификатор кодека : S_TEXT/UTF8
Идентификатор кодека/Информация : UTF-8 Plain Text
Язык : Russian
Default : Нет
Forced : Нет

Меню
00:00:00.000 : en:Amazon Original
00:00:06.000 : en:Scene 2
01:03:45.000 : en:Scene 3
01:04:28.000 : en:Scene 4
01:30:17.000 : en:Acknowledgement
01:30:24.000 : en:End Credits







Релиз от: Rip by:
7Max7
Аватара пользователя
 
Раздал: 491.04 ГБ
Скачал: 3 ГБ
Ратио: 163.468
Сообщения: 413
Зарегистрирован: 14 фев 2014, 18:28
  • Торрент
Автор: 7Max7 Хэш: ---
Добавлен: 11 ноя 2020, 16:49 Приватный: Нет (DHT включён)
Статус: Проверен
Размер: 2.71 ГБ (2 907 602 225 байт)
Изменил:
---
Скачали: 2668 (Раздающих: 0%)
Причина:
---
Здоровье: 100%
Сидеров: 83 Личеров: 2
Скорость раздачи: 0 байт/сек Скорость скачивания: 0 байт/сек
Последний сидер: 2 дня 14 часов 55 минут 44 секунды назад Последний личер: 2 дня 14 часов 55 минут 44 секунды назад
Для скачивания торрента необходимо зарегистрироваться или войти на трекер.

Форум Статистика

Кто сейчас на конференции

Сейчас этот форум просматривают: Google [Bot] и гости: 3

  • Похожие торренты
    Ответы
    Просмотры
    Последнее сообщение

Настройки

Вернуться в Фильмы / HDTV / HD / Blu-Ray

cron
Ресурс не предоставляет электронные версии произведений, а занимается лишь коллекционированием и каталогизацией ссылок, присылаемых и публикуемых на форуме нашими читателями. Если вы являетесь правообладателем какого-либо представленного материала и не желаете чтобы ссылка на него находилась в нашем каталоге, свяжитесь с нами и мы незамедлительно удалим её. Файлы для обмена на трекере предоставлены пользователями сайта, и администрация не несёт ответственности за их содержание. Просьба не заливать файлы, защищенные авторскими правами, а также файлы нелегального содержания!
tracker_cron