Модераторы: K15, Младшие модераторы, Модераторы

Человек-ракета / RocketMan (1997) WEB-DLRip 720p от SuperMin | P

Сообщение Sovetnik » 20 сен 2020, 00:05

#777
Информация о фильме
Название: Человек-ракета
Оригинальное название: RocketMan
Год выхода: 1997
Жанр: фантастика, мелодрама, комедия
Режиссер: Стюарт Гиллард
В ролях: Харланд Уильямс, Джессика Ланди, Уильям Сэдлер, Джеффри ДеМанн, Джеймс Пикенс мл., Бо Бриджес, Питер Онорати, Дон Лейк, Уильям Артур Дженкинс, Кен Фармер

О фильме:
Когда компьютерный гений Фред Рэндэлл создал новую навигационную систему, у него появился реальный шанс испытать ее на деле. После того, как новоиспеченный космонавт случайно покалечил двух «коллег» из его группы, отправляющейся на Марс, он вынужден занять их место на корабле.
Командир экипажа недоволен подобной заменой: вместо первоклассных летчиков ему достается балбес — новичок, прошедший неполный курс подготовки. Единственный на борту, кто понимает Фреда без слов, — шимпанзе по кличке Одиссей, настоящий космический волк. Но на Марсе корабль землян поджидают опасности. Профессионалы бессильны, но, как известно, новичкам всегда везет.



Страна: США
Студия: Caravan Pictures, Gold/Miller Productions, Roger Birnbaum Productions
Продолжительность: 01:34:10
Перевод: Профессиональный (многоголосый закадровый)

Файл
Кодек: H.264
Качество: WEBDLRip-720
Видео: 1280x720 (16:9), 2871 kbps, 23.976 fps
Звук: Русский (AC-3, 2ch, 192 kbps)
Оригинал (E-AC-3, 6ch, 640 kbps)
Субтитры: английские



x264 [info]: frame I:1240 Avg QP:16.55 size: 82254
x264 [info]: frame P:29386 Avg QP:17.37 size: 34794
x264 [info]: frame B:104806 Avg QP:20.40 size: 8613
x264 [info]: consecutive B-frames: 2.2% 2.6% 8.7% 18.5% 18.1% 38.4% 7.5% 2.2% 1.1% 0.6%

General
Unique ID : 71196669514683149802549102394232350391 (0x358FFAD297DB14562EF0173C76F126B7)
Complete name : F:ФИЛЬМЫРУТОРЧеловек-ракета.WEB-DLRip 720p.mkv
Format : Matroska
Format version : Version 4
File size : 2.44 GiB
Duration : 1 h 34 min
Overall bit rate : 3 705 kb/s
Movie name : Человек-ракета / RocketMan (1997) - #LORDKILL#
Encoded date : UTC 2020-09-02 16:54:54
Writing application : mkvmerge v32.0.0 ('Astral Progressions') 64-bit
Writing library : libebml v1.3.7 + libmatroska v1.5.0

Video
ID : 1
Format : AVC
Format/Info : Advanced Video Codec
Format profile : High@L4.1
Format settings : CABAC / 9 Ref Frames
Format settings, CABAC : Yes
Format settings, Reference : 9 frames
Codec ID : V_MPEG4/ISO/AVC
Duration : 1 h 34 min
Bit rate : 2 871 kb/s
Width : 1 280 pixels
Height : 720 pixels
Display aspect ratio : 16:9
Frame rate mode : Constant
Frame rate : 23.976 (24000/1001) FPS
Color space : YUV
Chroma subsampling : 4:2:0
Bit depth : 8 bits
Scan type : Progressive
Bits/(Pixel*Frame) : 0.130
Stream size : 1.89 GiB (77%)
Writing library : x264 core 159 r2991 1771b55
Encoding settings : cabac=1 / ref=9 / deblock=1:-2:-2 / analyse=0x3:0x113 / me=umh / subme=10 / psy=1 / psy_rd=1.00:0.20 / mixed_ref=1 / me_range=32 / chroma_me=1 / trellis=2 / 8x8dct=1 / cqm=0 / deadzone=21,11 / fast_pskip=0 / chroma_qp_offset=-3 / threads=12 / lookahead_threads=2 / sliced_threads=0 / nr=0 / decimate=1 / interlaced=0 / bluray_compat=0 / constrained_intra=0 / bframes=9 / b_pyramid=2 / b_adapt=2 / b_bias=0 / direct=1 / weightb=1 / open_gop=0 / weightp=2 / keyint=240 / keyint_min=23 / scenecut=40 / intra_refresh=0 / rc=crf / mbtree=0 / crf=19.0 / qcomp=0.60 / qpmin=0 / qpmax=69 / qpstep=4 / ip_ratio=1.40 / pb_ratio=1.30 / aq=1:1.00
Default : Yes
Forced : No

Audio #1
ID : 2
Format : AC-3
Format/Info : Audio Coding 3
Commercial name : Dolby Digital
Codec ID : A_AC3
Duration : 1 h 34 min
Bit rate mode : Constant
Bit rate : 192 kb/s
Channel(s) : 2 channels
Channel layout : L R
Sampling rate : 48.0 kHz
Frame rate : 31.250 FPS (1536 SPF)
Compression mode : Lossy
Stream size : 129 MiB (5%)
Title : MVO
Language : Russian
Service kind : Complete Main
Default : Yes
Forced : No

Audio #2
ID : 3
Format : E-AC-3
Format/Info : Enhanced AC-3
Commercial name : Dolby Digital Plus
Codec ID : A_EAC3
Duration : 1 h 34 min
Bit rate mode : Constant
Bit rate : 640 kb/s
Channel(s) : 6 channels
Channel layout : L R C LFE Ls Rs
Sampling rate : 48.0 kHz
Frame rate : 31.250 FPS (1536 SPF)
Compression mode : Lossy
Stream size : 431 MiB (17%)
Language : English
Service kind : Complete Main
Default : No
Forced : No

Text
ID : 4
Format : UTF-8
Codec ID : S_TEXT/UTF8
Codec ID/Info : UTF-8 Plain Text
Duration : 1 h 32 min
Bit rate : 74 b/s
Count of elements : 1610
Stream size : 50.5 KiB (0%)
Language : English
Default : No
Forced : No
Sovetnik
Аватара пользователя
 
Раздал: 32.13 ТБ
Скачал: 13.11 ГБ
Ратио: 2510.256
Сообщения: 1873
Зарегистрирован: 13 фев 2014, 05:19
  • Торрент
Автор: Sovetnik Хэш: ---
Добавлен: 20 сен 2020, 00:05 Приватный: Нет (DHT включён)
Статус: Проверен
Размер: 2.44 ГБ (2 616 196 357 байт)
Изменил:
---
Скачали: 171 (Раздающих: 0%)
Причина:
---
Здоровье: 100%
Сидеров: 8 Личеров: 1
Скорость раздачи: 0 байт/сек Скорость скачивания: 0 байт/сек
Последний сидер: 3 месяца 18 дней 5 часов 43 минуты 43 секунды назад Последний личер: 3 месяца 18 дней 5 часов 43 минуты 43 секунды назад
Для скачивания торрента необходимо зарегистрироваться или войти на трекер.

Форум Статистика

Кто сейчас на конференции

Сейчас этот форум просматривают: нет зарегистрированных пользователей и гости: 3

  • Похожие торренты
    Ответы
    Просмотры
    Последнее сообщение

Настройки

Вернуться в Фильмы / HDTV / HD / Blu-Ray

cron
Ресурс не предоставляет электронные версии произведений, а занимается лишь коллекционированием и каталогизацией ссылок, присылаемых и публикуемых на форуме нашими читателями. Если вы являетесь правообладателем какого-либо представленного материала и не желаете чтобы ссылка на него находилась в нашем каталоге, свяжитесь с нами и мы незамедлительно удалим её. Файлы для обмена на трекере предоставлены пользователями сайта, и администрация не несёт ответственности за их содержание. Просьба не заливать файлы, защищенные авторскими правами, а также файлы нелегального содержания!