Модераторы: K15, Младшие модераторы, Модераторы

Неуязвимый / Unbreakable (2000) BDRip 720p | D, P, A

Сообщение Zina » 31 июл 2020, 21:37

#777
Информация о фильме
Название: Неуязвимый
Оригинальное название: Unbreakable
Год выхода: 2000
Жанр: фантастика, триллер, драма, детектив
Режиссер: М. Найт Шьямалан
В ролях: Брюс Уиллис, Сэмюэл Л. Джексон, Робин Райт, Спенсер Трит Кларк, Чарлэйн Вудард, Имонн Уолкер, Лесли Стефансон, Джонни Хирам Джеймисон, Мишелия Кэрролл, Бостин Кристофер

О фильме: В результате ужасной железнодорожной катастрофы погибают практически все пассажиры поезда "Истрейл 177". Из 132 человек, ехавших в Филадельфию, только один остаётся в живых, не получив при этом ни единой травмы. Что это: счастливая случайность, Божий промысел или что-то совершенно иное?

А до этого происшествия, 39 лет назад, на свет появляется мальчик со страшными переломами рук и ног, полученными ещё до рождения. Что может связывать этих людей? "Два полюса одной тайны" - гласит слоган фильма. Какую же тайну скрывает простой охранник стадиона из Филадельфии Дэвид Дан и владелец галереи комиксов Элайджа Прайс?



Страна: США
Студия: Touchstone Pictures, Blinding Edge Pictures, Barry Mendel Productions
Продолжительность: 01:46:39
Перевод: Профессиональный (дублированный), Профессиональный (многоголосый, закадровый), Авторский (одноголосый, закадровый)

Файл
Качество: BDRip 720p | msltel
Формат: Matroska
Видео: 1280x544 at 23.976 fps, x264, ~4000 kbps avg
Aудио#1: Russian: 48 kHz, AC3, 3/2 (L,C,R,l,r) + LFE ch, ~640 kbps avg |Дубляж, Blu-ray CEE|
Aудио#2: Russian: 48 kHz, AC3, 3/2 (L,C,R,l,r) + LFE ch, ~448 kbps avg |Многоголосый закадровый, Киномания|
Aудио#3: Russian: 48 kHz, AC3, 2/0 (L,R) ch, ~192 kbps avg |Многоголосый закадровый, OPT|
Aудио#4: Russian: 48 kHz, AC3, 3/2 (L,C,R,l,r) + LFE ch, ~448 kbps avg |Авторский, А.Гаврилов|
Aудио#5: Russian: 48 kHz, AC3, 3/2 (L,C,R,l,r) + LFE ch, ~448 kbps avg |Авторский, Ю.Живов|
Aудио#6: Russian: 48 kHz, AC3, 3/2 (L,C,R,l,r) + LFE ch, ~448 kbps avg |Авторский, Д.Есарев|
Аудио#7: English: 48 kHz, AC3, 3/2 (L,C,R,l,r) + LFE ch, ~448 kbps avg
Субтитры: Russian, English (SDH)

***Сохранены оригинальные главы как на Blu-ray

Роль Одри Данн была предложена Джулианне Мур.
Музыка, играющая во время выставки Элайджи, — та же самая композиция, которую разучивала мама Роуг/Мари в начальных сценах фильма «Люди Икс» (2000).
В фильме «Крепкий орешек 3: Возмездие» (1995), инспектор Кобб (Ларри Бриггман) говорит Джону МакКлейну (Брюс Уиллис), что «к следующему месяцу он будет работать охранником». В данном фильме, Брюс сыграл охранника.
Элайджа спрашивает Дэвида, почему он выбрал профессию, связанную с защитой людей, а не какую-нибудь другую, среди которых он упоминает организацию сети ресторанов. В реальной жизни, Брюс Уиллис является одним из основателей ресторанной сети «Планета Голливуд».
Osteogenesis Imperfecta — очень редкая, реально существующая болезнь, которая с особой тщательностью была воссоздана в фильме.
Главного героя фильма зовут Дэвид Данн. В комиксах, имена и фамилии главных персонажей очень часто начинаются с одной и той же буквы, например: Питер Паркер, Брюс Баннер, Мэтт Мёрдок, Кларк Кент.
В газете, которую Дэвид показывает своему сыну, можно прочитать следующее: «Заголовок: СПАСЕНЫ. Герой спас двух детей. Родители найдены мертвыми в доме. Автор: Николь Марселла. Полиция ведет расследование противоправного вторжения в дом, приведшего к смерти троих человек в районе Бала Синвид. Официальные лица пока не могут объяснить мотивацию доброго самаритянина, который прошлой ночью спас двоих маленьких детей. Детали происшествия поверхностны, но, по словам полиции, после того как он освободил детей, неизвестный герой убил человека, ответственного за смерть родителей. Полицейские пока не могут установить личность героя. По словам детей, его рост примерно 6 футов, и он был одет в длинную темно-зеленую накидку от дождя. Имена детей не разглашаются до тех пор, пока ближайшие родственники погибших не будут проинформированы о случившемся. На данный момент полиция всё еще пытается установить личность убийцы. Полиция Филадельфии будет признательна за любую информацию, ведущую к установлению его личности».
Сэмюэл Л. Джексон предложил, чтобы у его персонажа была стеклянная трость.
Как и в комиксах, главные персонажи преимущественно одеты в одежду определенных цветов: одежда Дэвида — зеленая; Элайджи — фиолетовая. Сэмюэл Л. Джексон сам выбрал цвет одежды для своего персонажа, т. к. фиолетовый — это его любимый цвет.
Фильм «Неуязвимый» должен был стать первой частью трилогии, но провал его в прокате перечеркнул первоначальные планы.
Картина снималась с 25 апреля по июль 2000 года в штате Пенсильвания в городах Филадельфия, Итон и Мэняунк.
В эпизодической роли посетителя стадиона снялся режиссер картины М. Найт Шьямалан.
В заключительных титрах картины было сказано, что фильм снят в память об Элизабет Лоуренс.
На экране нам показывают смерть четырех персонажей, однако за кадром погибает 513 человек.
Кадр с Одри в больнице, которую мы видим через стекло и как бы в небольшом тумане, практически идентичен первому появлению на экране Лоис Лэйн в фильме «Супермен» (1978).
Действие фильма происходит в Филадельфии. На рабочем месте Элайджи среди газетных вырезок можно заметить заголовок «Вирус-убийца выпущен в аэропорту». Брюс Уиллис сыграл главную роль в фильме «12 обезьян» (1995), где вирус, приведший к почти полному уничтожению человечества, впервые был распространен в филадельфийском аэропорту.
Логотип телеканала, рассказывающего о крушении поезда, — логотип Фантастической четверки.
В нескольких сценах, относящихся к Мистеру Глассу, присутствуют стеклянные предметы: — мы видим новорожденного Гласса через отражение в зеркале; — мы видим его в детстве через отражение в выключенном экране телевизора; — он оставляет свою визитку на лобовом стекле машины Дэвида Данна; — мы видим его отражения в стеклах его галереи; — его трость сделана из стекла.
[*]Несколько важных предметов для сюжета фильма, в первый раз показаны вверх ногами: — телевизионная новость о крушении поезда; — первый комикс Элайджи; — знак «Не входить» на территории, где хранятся обломки поезда; — серебряный пистолет с черной рукояткой, который видит Элайджа у человека в камуфляжной куртке, перепрыгивающего через турникеты; — Одри в перевернутой машине; — лицо Элайджи, когда он упал с лестницы.
General
Unique ID : 197115950574673509357133588152468871992 (0x944B26B342EAC2D0AC585A0789AF9B38)
Complete name : Unbreakable.2000.BDRip.720p.6xRus.Eng.mkv
Format : Matroska
Format version : Version 2
File size : 5.35 GiB
Duration : 1 h 46 min
Overall bit rate : 7 181 kb/s
Movie name : Неуязвимый / Unbreakable (2000)
Encoded date : UTC 2020-07-19 09:50:49
Writing application : mkvmerge v5.8.0 ('No Sleep / Pillow') built on Sep 2 2012 15:37:04
Writing library : libebml v1.2.3 + libmatroska v1.3.0

Video
ID : 1
Format : AVC
Format/Info : Advanced Video Codec
Format profile : High@L4.1
Format settings : CABAC / 9 Ref Frames
Format settings, CABAC : Yes
Format settings, Reference fra : 9 frames
Codec ID : V_MPEG4/ISO/AVC
Duration : 1 h 46 min
Bit rate : 3 966 kb/s
Width : 1 280 pixels
Height : 544 pixels
Display aspect ratio : 2.35:1
Frame rate mode : Constant
Frame rate : 23.976 (24000/1001) FPS
Color space : YUV
Chroma subsampling : 4:2:0
Bit depth : 8 bits
Scan type : Progressive
Bits/(Pixel*Frame) : 0.238
Stream size : 2.95 GiB (55%)
Writing library : x264 core 146 r2538 121396c
Encoding settings : cabac=1 / ref=9 / deblock=1:-3:-2 / analyse=0x3:0x113 / me=umh / subme=11 / psy=1 / psy_rd=1.00:0.15 / mixed_ref=1 / me_range=32 / chroma_me=1 / trellis=2 / 8x8dct=1 / cqm=0 / deadzone=21,11 / fast_pskip=0 / chroma_qp_offset=-3 / threads=6 / lookahead_threads=1 / sliced_threads=0 / nr=0 / decimate=1 / interlaced=0 / bluray_compat=0 / constrained_intra=0 / bframes=7 / b_pyramid=2 / b_adapt=2 / b_bias=0 / direct=1 / weightb=1 / open_gop=0 / weightp=2 / keyint=230 / keyint_min=23 / scenecut=40 / intra_refresh=0 / rc_lookahead=40 / rc=crf / mbtree=0 / crf=18.0 / qcomp=0.60 / qpmin=0 / qpmax=69 / qpstep=4 / vbv_maxrate=62500 / vbv_bufsize=78125 / crf_max=0.0 / nal_hrd=none / filler=0 / ip_ratio=1.40 / pb_ratio=1.30 / aq=1:1.00
Language : English
Default : Yes
Forced : No

Audio #1
ID : 2
Format : AC-3
Format/Info : Audio Coding 3
Commercial name : Dolby Digital
Codec ID : A_AC3
Duration : 1 h 46 min
Bit rate mode : Constant
Bit rate : 640 kb/s
Channel(s) : 6 channels
Channel layout : L R C LFE Ls Rs
Sampling rate : 48.0 kHz
Frame rate : 31.250 FPS (1536 SPF)
Bit depth : 16 bits
Compression mode : Lossy
Stream size : 488 MiB (9%)
Title : Дубляж | Blu-ray CEE
Language : Russian
Service kind : Complete Main
Default : Yes
Forced : No

Audio #2
ID : 3
Format : AC-3
Format/Info : Audio Coding 3
Commercial name : Dolby Digital
Codec ID : A_AC3
Duration : 1 h 46 min
Bit rate mode : Constant
Bit rate : 448 kb/s
Channel(s) : 6 channels
Channel layout : L R C LFE Ls Rs
Sampling rate : 48.0 kHz
Frame rate : 31.250 FPS (1536 SPF)
Bit depth : 16 bits
Compression mode : Lossy
Stream size : 342 MiB (6%)
Title : Многоголосый | Киномания
Language : Russian
Service kind : Complete Main
Default : No
Forced : No

Audio #3
ID : 4
Format : AC-3
Format/Info : Audio Coding 3
Commercial name : Dolby Digital
Codec ID : A_AC3
Duration : 1 h 46 min
Bit rate mode : Constant
Bit rate : 192 kb/s
Channel(s) : 2 channels
Channel layout : L R
Sampling rate : 48.0 kHz
Frame rate : 31.250 FPS (1536 SPF)
Bit depth : 16 bits
Compression mode : Lossy
Stream size : 146 MiB (3%)
Title : Многоголосый | OPT
Language : Russian
Service kind : Complete Main
Default : No
Forced : No

Audio #4
ID : 5
Format : AC-3
Format/Info : Audio Coding 3
Commercial name : Dolby Digital
Codec ID : A_AC3
Duration : 1 h 46 min
Bit rate mode : Constant
Bit rate : 448 kb/s
Channel(s) : 6 channels
Channel layout : L R C LFE Ls Rs
Sampling rate : 48.0 kHz
Frame rate : 31.250 FPS (1536 SPF)
Bit depth : 16 bits
Compression mode : Lossy
Stream size : 342 MiB (6%)
Title : Авторский | А.Гаврилов
Language : Russian
Service kind : Complete Main
Default : No
Forced : No

Audio #5
ID : 6
Format : AC-3
Format/Info : Audio Coding 3
Commercial name : Dolby Digital
Codec ID : A_AC3
Duration : 1 h 46 min
Bit rate mode : Constant
Bit rate : 448 kb/s
Channel(s) : 6 channels
Channel layout : L R C LFE Ls Rs
Sampling rate : 48.0 kHz
Frame rate : 31.250 FPS (1536 SPF)
Bit depth : 16 bits
Compression mode : Lossy
Stream size : 342 MiB (6%)
Title : Авторский | Ю.Живов
Language : Russian
Service kind : Complete Main
Default : No
Forced : No

Audio #6
ID : 7
Format : AC-3
Format/Info : Audio Coding 3
Commercial name : Dolby Digital
Codec ID : A_AC3
Duration : 1 h 46 min
Bit rate mode : Constant
Bit rate : 448 kb/s
Channel(s) : 6 channels
Channel layout : L R C LFE Ls Rs
Sampling rate : 48.0 kHz
Frame rate : 31.250 FPS (1536 SPF)
Bit depth : 16 bits
Compression mode : Lossy
Stream size : 342 MiB (6%)
Title : Авторский | Д.Есарев
Language : Russian
Service kind : Complete Main
Default : No
Forced : No

Audio #7
ID : 8
Format : AC-3
Format/Info : Audio Coding 3
Commercial name : Dolby Digital
Codec ID : A_AC3
Duration : 1 h 46 min
Bit rate mode : Constant
Bit rate : 448 kb/s
Channel(s) : 6 channels
Channel layout : L R C LFE Ls Rs
Sampling rate : 48.0 kHz
Frame rate : 31.250 FPS (1536 SPF)
Bit depth : 16 bits
Compression mode : Lossy
Stream size : 342 MiB (6%)
Language : English
Service kind : Complete Main
Default : No
Forced : No

Text #1
ID : 9
Format : UTF-8
Codec ID : S_TEXT/UTF8
Codec ID/Info : UTF-8 Plain Text
Title : Full
Language : Russian
Default : No
Forced : No

Text #2
ID : 10
Format : UTF-8
Codec ID : S_TEXT/UTF8
Codec ID/Info : UTF-8 Plain Text
Title : SDH
Language : English
Default : No
Forced : No

Menu
00:00:00.000 : :Chapter 01
00:08:44.022 : :Chapter 02
00:09:50.673 : :Chapter 03
00:14:57.061 : :Chapter 04
00:16:30.948 : :Chapter 05
00:20:57.339 : :Chapter 06
00:25:04.920 : :Chapter 07
00:32:26.069 : :Chapter 08
00:34:37.158 : :Chapter 09
00:36:28.393 : :Chapter 10
00:40:55.703 : :Chapter 11
00:43:22.975 : :Chapter 12
00:49:59.036 : :Chapter 13
00:54:53.039 : :Chapter 14
00:56:57.414 : :Chapter 15
01:00:00.095 : :Chapter 16
01:02:51.392 : :Chapter 17
01:04:35.037 : :Chapter 18
01:07:37.261 : :Chapter 19
01:12:16.832 : :Chapter 20
01:13:28.445 : :Chapter 21
01:17:33.314 : :Chapter 22
01:22:19.684 : :Chapter 23
01:31:38.618 : :Chapter 24
01:33:13.587 : :Chapter 25
01:35:53.080 : :Chapter 26
01:37:49.988 : :Chapter 27
01:42:15.462 : :Chapter 28
01:46:37.390 : :Chapter 29
01:46:39.393 : :Chapter 30


Торрент взят с http://rutor.info/torrent/566157/neujaz ... 20p-d-p-a/
Zina
Аватара пользователя
 
Раздал: 0 байт
Скачал: 0 байт
Ратио: Inf.
Сообщения: 332
Зарегистрирован: 01 июл 2014, 16:52
  • Торрент
Автор: Zina Хэш: ---
Добавлен: 31 июл 2020, 21:37 Приватный: Нет (DHT включён)
Статус: Проверен
Размер: 5.35 ГБ (5 743 997 214 байт)
Изменил:
---
Скачали: 514 (Раздающих: 0%)
Причина:
---
Здоровье: 100%
Сидеров: 13 Личеров: 2
Скорость раздачи: 0 байт/сек Скорость скачивания: 0 байт/сек
Последний сидер: 3 месяца 18 дней 23 часа 22 минуты 6 секунд назад Последний личер: 3 месяца 18 дней 23 часа 22 минуты 6 секунд назад
Для скачивания торрента необходимо зарегистрироваться или войти на трекер.

Форум Статистика

Кто сейчас на конференции

Сейчас этот форум просматривают: нет зарегистрированных пользователей и гости: 3

  • Похожие торренты
    Ответы
    Просмотры
    Последнее сообщение

Настройки

Вернуться в Фильмы / HDTV / HD / Blu-Ray

cron
Ресурс не предоставляет электронные версии произведений, а занимается лишь коллекционированием и каталогизацией ссылок, присылаемых и публикуемых на форуме нашими читателями. Если вы являетесь правообладателем какого-либо представленного материала и не желаете чтобы ссылка на него находилась в нашем каталоге, свяжитесь с нами и мы незамедлительно удалим её. Файлы для обмена на трекере предоставлены пользователями сайта, и администрация не несёт ответственности за их содержание. Просьба не заливать файлы, защищенные авторскими правами, а также файлы нелегального содержания!