Модераторы: K15, Модераторы, Младшие модераторы

Космическая одиссея 2010 / 2010: The Year We Make Contact (1984) BDRip-AVC от ExKinoRay | Р

Сообщение Zina » 31 июл 2020, 21:35

#777
Информация о фильме
Название: Космическая одиссея 2010
Оригинальное название: 2010: The Year We Make Contact
Год выхода: 1984
Жанр: Фантастика, триллер, детектив, приключения
Режиссер: Питер Хайамс
В ролях: Рой Шайдер, Хелен Миррен, Боб Бэлабан, Кир Дулли, Дуглас Рэйн, Мэдолин Смит-Осборн, Дэна Элкар, Толизин Джаффе, Мэри Джо Дешанель, Илья Баскин, Савелий Крамаров, Олег Рудник, Наташа Шнейдер, Владимир Скомаровский, Ян Тришка, Ларри Кэрролл, Херта Уэр, Шерил Картер, Роберт Лессер, Кэндис Берген, Делана Майклс

О фильме:
Действие разворачивается спустя девять лет после событий, описываемых в фильме Стэнли Кубрика «2001 год: Космическая одиссея». Совместными усилиями американо-советские космонавты выводят на орбиту экипаж корабля «Алексей Леонов». Цель экспедиции — определить причину провала исследовательской миссии шаттла «Дискавери». Достигнув Юпитера, зонд фиксирует неизвестную форму жизни под слоем непроходимого льда. При попытке сфотографировать объект аппарат уничтожает яркая вспышка света. Дабы понять, что случилось с предшественниками, космонавты вынуждены вновь запустить бортовой компьютер HAL-9000.


Страна: США
Студия: Metro-Goldwyn-Mayer (MGM)
Продолжительность: 01:55:55
Перевод: Профессиональный (многоголосый, закадровый)

Файл
Формат: MKV
Качество: BDRip-AVC
Видео: MPEG-4 AVC, 764x318, - 822 Кбит/с
Аудио: AAC-HE, 2 ch, - 76 Кбит/с
Субтитры: Русские, английские

Общее
Уникальный идентификатор : 251082580219018507468442808657968075033 (0xBCE4BEF844D27047314594DB8D579119)
Полное имя : D:MOVIESKosmicheskaja.odisseja.2010.1984.BDRip-AVC.ExKinoRay.mkv
Формат : Matroska
Версия формата : Version 4
Размер файла : 746 Мбайт
Продолжительность : 1 ч. 55 м.
Общий поток : 899 Кбит/сек
Дата кодирования : UTC 2020-07-11 09:09:17
Программа кодирования : mkvmerge v45.0.0 ('Heaven in Pennies') 64-bit
Библиотека кодирования : libebml v1.3.10 + libmatroska v1.5.2

Видео
Идентификатор : 1
Формат : AVC
Формат/Информация : Advanced Video Codec
Профиль формата : High@L4.1
Настройки формата : CABAC / 11 Ref Frames
Параметр CABAC формата : Да
Параметр RefFrames формата : 11 кадров
Идентификатор кодека : V_MPEG4/ISO/AVC
Продолжительность : 1 ч. 55 м.
Битрейт : 822 Кбит/сек
Ширина : 764 пикселя
Высота : 318 пикселей
Соотношение сторон : 2,40:1
Режим частоты кадров : Постоянный
Частота кадров : 23,976 (24000/1001) кадра/сек
Цветовое пространство : YUV
Субдискретизация насыщенности : 4:2:0
Битовая глубина : 8 бит
Тип развёртки : Прогрессивная
Бит/(Пиксели*Кадры) : 0.141
Размер потока : 681 Мбайт (91%)
Библиотека кодирования : x264 core 160 r3000 33f9e14
Настройки программы : cabac=1 / ref=11 / deblock=1:-3:-3 / analyse=0x3:0x133 / me=umh / subme=10 / psy=1 / psy_rd=1.05:0.12 / mixed_ref=1 / me_range=32 / chroma_me=1 / trellis=2 / 8x8dct=1 / cqm=0 / deadzone=21,11 / fast_pskip=0 / chroma_qp_offset=-3 / threads=6 / lookahead_threads=1 / sliced_threads=0 / nr=0 / decimate=0 / interlaced=0 / bluray_compat=0 / constrained_intra=0 / bframes=11 / b_pyramid=2 / b_adapt=2 / b_bias=0 / direct=3 / weightb=1 / open_gop=0 / weightp=2 / keyint=240 / keyint_min=23 / scenecut=40 / intra_refresh=0 / rc=2pass / mbtree=0 / bitrate=822 / ratetol=1.0 / qcomp=0.60 / qpmin=0 / qpmax=69 / qpstep=4 / cplxblur=20.0 / qblur=0.5 / ip_ratio=1.40 / pb_ratio=1.30 / aq=3:1.00
Default : Да
Forced : Нет
Цветовой диапазон : Limited
Основные цвета : BT.709
Характеристики трансфера : BT.709
Коэффициенты матрицы : BT.709

Аудио
Идентификатор : 2
Формат : AAC LC SBR
Формат/Информация : Advanced Audio Codec Low Complexity with Spectral Band Replication
Коммерческое название : HE-AAC
Настройки формата : Explicit
Идентификатор кодека : A_AAC-2
Продолжительность : 1 ч. 55 м.
Битрейт : 76,0 Кбит/сек
Каналы : 2 канала
Channel layout : L R
Частота : 48,0 КГц
Частота кадров : 23,438 кадра/сек (2048 SPF)
Метод сжатия : С потерями
Задержка видео : 31 мс.
Размер потока : 63,0 Мбайт (8%)
Язык : Russian
Default : Да
Forced : Нет

Текст #1
Идентификатор : 3
Формат : UTF-8
Идентификатор кодека : S_TEXT/UTF8
Идентификатор кодека/Информация : UTF-8 Plain Text
Продолжительность : 1 ч. 51 м.
Битрейт : 106 бит/сек
Count of elements : 1457
Размер потока : 86,5 Кбайт (0%)
Язык : Russian
Default : Нет
Forced : Нет

Текст #2
Идентификатор : 4
Формат : UTF-8
Идентификатор кодека : S_TEXT/UTF8
Идентификатор кодека/Информация : UTF-8 Plain Text
Продолжительность : 1 ч. 55 м.
Битрейт : 64 бит/сек
Count of elements : 1355
Размер потока : 54,4 Кбайт (0%)
Язык : English
Default : Нет
Forced : Нет

Меню
00:00:00.000 : en:Глава 01
00:14:09.723 : en:Глава 02
00:31:32.056 : en:Глава 03
00:51:53.485 : en:Глава 04
01:11:16.230 : en:Глава 05
01:34:29.455 : en:Глава 06
01:55:54.989 : en:Глава 07 / en:Глава 08


Zina
Аватара пользователя
 
Раздал: 0 байт
Скачал: 0 байт
Ратио: Inf.
Сообщения: 318
Зарегистрирован: 01 июл 2014, 16:52
  • Торрент
Автор: Zina Хэш: ---
Добавлен: 31 июл 2020, 21:35 Приватный: Нет (DHT включён)
Статус: Проверен
Размер: 745.54 МБ (781 758 377 байт)
Изменил:
---
Скачали: 703 (Раздающих: 0%)
Причина:
---
Здоровье: 100%
Сидеров: 4 Личеров: 2
Скорость раздачи: 0 байт/сек Скорость скачивания: 0 байт/сек
Последний сидер: 1 месяц 13 дней 23 часа 32 минуты 42 секунды назад Последний личер: 1 месяц 13 дней 23 часа 32 минуты 42 секунды назад
Для скачивания торрента необходимо зарегистрироваться или войти на трекер.

Форум Статистика

Кто сейчас на конференции

Сейчас этот форум просматривают: нет зарегистрированных пользователей и гости: 7

  • Похожие торренты
    Ответы
    Просмотры
    Последнее сообщение

Настройки

Вернуться в Фильмы / HDTV / HD / Blu-Ray

cron
Ресурс не предоставляет электронные версии произведений, а занимается лишь коллекционированием и каталогизацией ссылок, присылаемых и публикуемых на форуме нашими читателями. Если вы являетесь правообладателем какого-либо представленного материала и не желаете чтобы ссылка на него находилась в нашем каталоге, свяжитесь с нами и мы незамедлительно удалим её. Файлы для обмена на трекере предоставлены пользователями сайта, и администрация не несёт ответственности за их содержание. Просьба не заливать файлы, защищенные авторскими правами, а также файлы нелегального содержания!
tracker_cron