Модераторы: K15, Младшие модераторы, Модераторы

Вне игры / The Way Back (2020) BDRip 1080p от селезень | D, P | iTunes

Сообщение stivi » 15 июл 2020, 18:50

  • Постеры
  • Скриншоты
Информация о фильме
Название: Вне игры
Оригинальное название: The Way Back
Год выхода: 2020
Жанр: Драма, спорт
Режиссер: Гэвин О`Коннор
В ролях: Бен Аффлек, Янина Гаванкар, Микейла Уоткинс, Хэйз МакАртур, Да Винчи, Рэйчел Карпани, Тодд Стэшвик, Марлин Форте, Инка Кито, Глинн Тёрмен


О фильме: Джек Каннингэм в школе был восходящей баскетбольной звездой, но в какой-то момент покончил со спортом. Из-за пристрастия к таблеткам и алкоголю он в одночасье лишился всего - славы, денег и семьи. Вскоре жизнь даёт Джеку второй шанс - он берётся тренировать баскетбольную команду своей родной школы, которую все считают откровенными неудачниками.

Страна: США
Студия: Warner Bros., Spyglass Media Group, BRON Studios
Продолжительность: 01:48:26
Перевод: Дублированный (iTunes), Профессиональный многоголосый (HDRezka Studio)

Качество: BDRip 1080p
Видео: MPEG-4 AVC, 1920x804, 13.7 Mbit/s, 23.976 fps
Аудио #01: 48 kHz, AC3, 5.1, 384 Kbps | iTunes | RUS |Вне игры / The Way Back (2020) BDRip 1080p от селезень | D, P | iTunes
Аудио #02: 48 kHz, AC3, 5.1, 448 Kbps | HDRezka Studio | RUS |
Аудио #03: 48 kHz, AC3, 5.1, 640 Kbps | Оригинал | ENG |
Субтитры: Русские (2 x Forced, 2 x full), английские


General
Unique ID : 264122796551095857630570072490537751555 (0xC6B4334607622D459048E65633719403)
Complete name : E:\The.Way.Back.2020.D.MVO.BDRip.1080p.seleZen.mkv
Format : Matroska
Format version : Version 4
File size : 11.5 GiB
Duration : 1 h 48 min
Overall bit rate : 15.1 Mb/s
Movie name : The Way Back 2020 from селезень
Encoded date : UTC 2020-06-19 03:10:26
Writing application : mkvmerge v40.0.0 ('Old Town Road + Pony') 64-bit
Writing library : libebml v1.3.9 + libmatroska v1.5.2

Video
ID : 1
Format : AVC
Format/Info : Advanced Video Codec
Format profile : High@L4.1
Format settings : CABAC / 5 Ref Frames
Format settings, CABAC : Yes
Format settings, Reference : 5 frames
Codec ID : V_MPEG4/ISO/AVC
Duration : 1 h 48 min
Bit rate : 13.7 Mb/s
Width : 1 920 pixels
Height : 804 pixels
Display aspect ratio : 2.40:1
Frame rate mode : Constant
Frame rate : 23.976 (24000/1001) FPS
Color space : YUV
Chroma subsampling : 4:2:0
Bit depth : 8 bits
Scan type : Progressive
Bits/(Pixel*Frame) : 0.369
Stream size : 10.3 GiB (90%)
Title : seleZen
Writing library : x264 core 146 r2538 121396c
Encoding settings : cabac=1 / ref=5 / deblock=1:-2:-2 / analyse=0x3:0x133 / me=umh / subme=11 / psy=1 / psy_rd=1.00:0.00 / mixed_ref=0 / me_range=32 / chroma_me=1 / trellis=2 / 8x8dct=1 / cqm=0 / deadzone=21,11 / fast_pskip=0 / chroma_qp_offset=-2 / threads=48 / lookahead_threads=6 / sliced_threads=0 / nr=0 / decimate=0 / interlaced=0 / bluray_compat=0 / constrained_intra=0 / bframes=8 / b_pyramid=2 / b_adapt=2 / b_bias=0 / direct=3 / weightb=1 / open_gop=0 / weightp=2 / keyint=240 / keyint_min=23 / scenecut=40 / intra_refresh=0 / rc_lookahead=40 / rc=2pass / mbtree=0 / bitrate=13654 / ratetol=1.0 / qcomp=0.60 / qpmin=0 / qpmax=51 / qpstep=4 / cplxblur=20.0 / qblur=0.5 / vbv_maxrate=50000 / vbv_bufsize=62500 / nal_hrd=none / filler=0 / ip_ratio=1.40 / pb_ratio=1.30 / aq=3:0.80
Language : English
Default : Yes
Forced : No

Audio #1
ID : 2
Format : AC-3
Format/Info : Audio Coding 3
Commercial name : Dolby Digital
Codec ID : A_AC3
Duration : 1 h 48 min
Bit rate mode : Constant
Bit rate : 384 kb/s
Channel(s) : 6 channels
Channel layout : L R C LFE Ls Rs
Sampling rate : 48.0 kHz
Frame rate : 31.250 FPS (1536 SPF)
Compression mode : Lossy
Stream size : 298 MiB (3%)
Title : Dub [iTunes]
Language : Russian
Service kind : Complete Main
Default : Yes
Forced : Yes

Audio #2
ID : 3
Format : AC-3
Format/Info : Audio Coding 3
Commercial name : Dolby Digital
Codec ID : A_AC3
Duration : 1 h 48 min
Bit rate mode : Constant
Bit rate : 448 kb/s
Channel(s) : 6 channels
Channel layout : L R C LFE Ls Rs
Sampling rate : 48.0 kHz
Frame rate : 31.250 FPS (1536 SPF)
Compression mode : Lossy
Stream size : 347 MiB (3%)
Title : MVO [HDRezka Studio]
Language : Russian
Service kind : Complete Main
Default : No
Forced : No

Audio #3
ID : 4
Format : AC-3
Format/Info : Audio Coding 3
Commercial name : Dolby Digital
Codec ID : A_AC3
Duration : 1 h 48 min
Bit rate mode : Constant
Bit rate : 640 kb/s
Channel(s) : 6 channels
Channel layout : L R C LFE Ls Rs
Sampling rate : 48.0 kHz
Frame rate : 31.250 FPS (1536 SPF)
Compression mode : Lossy
Stream size : 496 MiB (4%)
Title : Original
Language : English
Service kind : Complete Main
Default : No
Forced : No

Text #1
ID : 5
Format : UTF-8
Codec ID : S_TEXT/UTF8
Codec ID/Info : UTF-8 Plain Text
Duration : 1 h 26 min
Bit rate : 2 b/s
Count of elements : 29
Stream size : 1.36 KiB (0%)
Title : Forced [iTunes]
Language : Russian
Default : Yes
Forced : Yes

Text #2
ID : 6
Format : UTF-8
Codec ID : S_TEXT/UTF8
Codec ID/Info : UTF-8 Plain Text
Duration : 1 h 25 min
Bit rate : 1 b/s
Count of elements : 17
Stream size : 1.11 KiB (0%)
Title : Forced [For HDRezka Studio]
Language : Russian
Default : No
Forced : No

Text #3
ID : 7
Format : UTF-8
Codec ID : S_TEXT/UTF8
Codec ID/Info : UTF-8 Plain Text
Duration : 1 h 46 min
Bit rate : 95 b/s
Count of elements : 1546
Stream size : 74.3 KiB (0%)
Title : Full [iTunes]
Language : Russian
Default : No
Forced : No

Text #4
ID : 8
Format : UTF-8
Codec ID : S_TEXT/UTF8
Codec ID/Info : UTF-8 Plain Text
Duration : 1 h 39 min
Bit rate : 107 b/s
Count of elements : 1682
Stream size : 78.8 KiB (0%)
Title : Full [FOCS]
Language : Russian
Default : No
Forced : No

Text #5
ID : 9
Format : UTF-8
Codec ID : S_TEXT/UTF8
Codec ID/Info : UTF-8 Plain Text
Duration : 1 h 39 min
Bit rate : 68 b/s
Count of elements : 1713
Stream size : 50.0 KiB (0%)
Title : Full
Language : English
Default : No
Forced : No

Text #6
ID : 10
Format : UTF-8
Codec ID : S_TEXT/UTF8
Codec ID/Info : UTF-8 Plain Text
Duration : 1 h 40 min
Bit rate : 77 b/s
Count of elements : 1855
Stream size : 57.1 KiB (0%)
Title : SDH
Language : English
Default : No
Forced : No

Menu
00:00:00.000 : en:Chapter 1
00:09:40.371 : en:Chapter 2
00:15:53.786 : en:Chapter 3
00:24:44.816 : en:Chapter 4
00:31:35.101 : en:Chapter 5
00:37:54.897 : en:Chapter 6
00:45:01.073 : en:Chapter 7
00:54:15.418 : en:Chapter 8
01:04:14.851 : en:Chapter 9
01:09:06.142 : en:Chapter 10
01:17:57.464 : en:Chapter 11
01:27:57.188 : en:Chapter 12
01:33:17.508 : en:Chapter 13
01:42:39.403 : en:Chapter 14
stivi
Аватара пользователя
 
Раздал: 0 байт
Скачал: 0 байт
Ратио: Inf.
Сообщения: 29
Зарегистрирован: 12 июл 2020, 13:51
Откуда: Moon
  • Торрент
Автор: stivi Хэш: ---
Добавлен: 15 июл 2020, 18:49 Приватный: Нет (DHT включён)
Статус: Проверен
Размер: 11.45 ГБ (12 294 682 638 байт)
Изменил:
---
Скачали: 13601 (Раздающих: 0%)
Причина:
---
Здоровье: 100%
Сидеров: 728 Личеров: 33
Скорость раздачи: 0 байт/сек Скорость скачивания: 0 байт/сек
Последний сидер: 3 месяца 13 дней 23 часа 36 минут 59 секунд назад Последний личер: 3 месяца 13 дней 23 часа 36 минут 59 секунд назад
Для скачивания торрента необходимо зарегистрироваться или войти на трекер.

Форум Статистика

Кто сейчас на конференции

Сейчас этот форум просматривают: нет зарегистрированных пользователей и гости: 4

  • Похожие торренты
    Ответы
    Просмотры
    Последнее сообщение

Настройки

Вернуться в Фильмы / HDTV / HD / Blu-Ray

cron
Ресурс не предоставляет электронные версии произведений, а занимается лишь коллекционированием и каталогизацией ссылок, присылаемых и публикуемых на форуме нашими читателями. Если вы являетесь правообладателем какого-либо представленного материала и не желаете чтобы ссылка на него находилась в нашем каталоге, свяжитесь с нами и мы незамедлительно удалим её. Файлы для обмена на трекере предоставлены пользователями сайта, и администрация не несёт ответственности за их содержание. Просьба не заливать файлы, защищенные авторскими правами, а также файлы нелегального содержания!
tracker_cron