Модераторы: K15, Младшие модераторы, Модераторы

Гретель и Гензель / Gretel & Hansel (2020) BDRip 1080p от селезень | iTunes

Сообщение stivi » 15 июл 2020, 16:04

  • Постеры
  • Скриншоты
Информация о фильме
Название: Гретель и Гензель
Оригинальное название: Gretel & Hansel
Год выхода: 2020
Жанр: Ужасы, фэнтези, триллер
Режиссер: Оз Перкинс
В ролях: София Лиллис, Сэмми Лики, Элис Крайдж, Джессика Де Гау, Чарльз Бабалола, Йен Кенни, Абдул Альшариф, Мануэль Помбо, Беатрикс Перкинс


О фильме: Новая версия старинной сказки братьев Гримм о зловещих приключениях брата и сестры в Очарованном лесу. В поисках еды голодные Грета и Гензель отправляются в лес, не подозревая, что им предстоит отведать обед дьявольской кухни и пройти все круги ада...

Страна: Ирландия, Канада, США, ЮАР
Студия: Automatik Entertainment, Orion Pictures, BRON Studios
Продолжительность: 01:27:20
Перевод: Дублированный | iTunes

Качество: BDRip 1080p
Видео: MPEG-4 AVC, 1920x1038, 14.6 Mbit/s, 23.976 fps
Аудио #01: 48 kHz, AC3, 5.1, 384 Kbps | iTunes | RUS |Гретель и Гензель / Gretel & Hansel (2020) BDRip 1080p от селезень | iTunes
Аудио #02: 48 kHz, AC3, 5.1, 640 Kbps | Оригинал | ENG |
Субтитры: Русские (Full), английские


General
Unique ID : 182566515007158960818717979092566972207 (0x89590824AA5D44D64F1D2E4C6C24972F)
Complete name : E:\Video111\Gretel.and.Hansel.2020.BDRip.1080p.seleZen.mkv
Format : Matroska
Format version : Version 4
File size : 9.55 GiB
Duration : 1 h 27 min
Overall bit rate : 15.7 Mb/s
Movie name : Gretel and Hansel 2020 from селезень
Encoded date : UTC 2020-04-24 19:59:54
Writing application : mkvmerge v40.0.0 ('Old Town Road + Pony') 64-bit
Writing library : libebml v1.3.9 + libmatroska v1.5.2

Video
ID : 1
Format : AVC
Format/Info : Advanced Video Codec
Format profile : High@L4.1
Format settings : CABAC / 4 Ref Frames
Format settings, CABAC : Yes
Format settings, Reference : 4 frames
Codec ID : V_MPEG4/ISO/AVC
Duration : 1 h 27 min
Bit rate : 14.6 Mb/s
Width : 1 920 pixels
Height : 1 038 pixels
Display aspect ratio : 1.85:1
Frame rate mode : Constant
Frame rate : 23.976 (24000/1001) FPS
Color space : YUV
Chroma subsampling : 4:2:0
Bit depth : 8 bits
Scan type : Progressive
Bits/(Pixel*Frame) : 0.306
Stream size : 8.92 GiB (93%)
Writing library : x264 core 160 r3000 33f9e14
Encoding settings : cabac=1 / ref=4 / deblock=1:-3:-3 / analyse=0x3:0x133 / me=umh / subme=10 / psy=1 / psy_rd=1.00:0.00 / mixed_ref=1 / me_range=32 / chroma_me=1 / trellis=2 / 8x8dct=1 / cqm=0 / deadzone=21,11 / fast_pskip=0 / chroma_qp_offset=-2 / threads=24 / lookahead_threads=4 / sliced_threads=0 / nr=0 / decimate=0 / interlaced=0 / bluray_compat=0 / constrained_intra=0 / bframes=8 / b_pyramid=2 / b_adapt=2 / b_bias=0 / direct=3 / weightb=1 / open_gop=0 / weightp=2 / keyint=250 / keyint_min=23 / scenecut=40 / intra_refresh=0 / rc=crf / mbtree=0 / crf=15.5 / qcomp=0.60 / qpmin=0 / qpmax=69 / qpstep=4 / ip_ratio=1.40 / pb_ratio=1.30 / aq=3:0.80
Language : English
Default : No
Forced : No
Color range : Limited
Matrix coefficients : BT.709

Audio #1
ID : 2
Format : AC-3
Format/Info : Audio Coding 3
Commercial name : Dolby Digital
Codec ID : A_AC3
Duration : 1 h 27 min
Bit rate mode : Constant
Bit rate : 384 kb/s
Channel(s) : 6 channels
Channel layout : L R C LFE Ls Rs
Sampling rate : 48.0 kHz
Frame rate : 31.250 FPS (1536 SPF)
Compression mode : Lossy
Stream size : 240 MiB (2%)
Title : iTunes
Language : Russian
Service kind : Complete Main
Default : Yes
Forced : Yes

Audio #2
ID : 3
Format : AC-3
Format/Info : Audio Coding 3
Commercial name : Dolby Digital
Codec ID : A_AC3
Duration : 1 h 27 min
Bit rate mode : Constant
Bit rate : 640 kb/s
Channel(s) : 6 channels
Channel layout : L R C LFE Ls Rs
Sampling rate : 48.0 kHz
Frame rate : 31.250 FPS (1536 SPF)
Compression mode : Lossy
Stream size : 400 MiB (4%)
Title : Original
Language : English
Service kind : Complete Main
Default : No
Forced : No

Text #1
ID : 4
Format : UTF-8
Codec ID : S_TEXT/UTF8
Codec ID/Info : UTF-8 Plain Text
Duration : 1 h 26 min
Bit rate : 65 b/s
Count of elements : 809
Stream size : 41.3 KiB (0%)
Title : Full
Language : Russian
Default : No
Forced : No

Text #2
ID : 5
Format : UTF-8
Codec ID : S_TEXT/UTF8
Codec ID/Info : UTF-8 Plain Text
Duration : 1 h 21 min
Bit rate : 41 b/s
Count of elements : 815
Stream size : 24.6 KiB (0%)
Title : Full
Language : English
Default : No
Forced : No

Menu
00:00:00.000 : :Chapter 1
00:09:17.265 : :Chapter 2
00:18:36.323 : :Chapter 3
00:28:10.188 : :Chapter 4
00:36:36.194 : :Chapter 5
00:44:25.579 : :Chapter 6
00:54:17.963 : :Chapter 7
01:04:07.593 : :Chapter 8
01:12:42.107 : :Chapter 9
01:22:15.096 : :Chapter 10
stivi
Аватара пользователя
 
Раздал: 0 байт
Скачал: 0 байт
Ратио: Inf.
Сообщения: 29
Зарегистрирован: 12 июл 2020, 13:51
Откуда: Moon
  • Торрент
Автор: stivi Хэш: ---
Добавлен: 15 июл 2020, 16:04 Приватный: Нет (DHT включён)
Статус: Проверен
Размер: 9.55 ГБ (10 253 824 350 байт)
Изменил:
---
Скачали: 14298 (Раздающих: 0%)
Причина:
---
Здоровье: 100%
Сидеров: 373 Личеров: 11
Скорость раздачи: 0 байт/сек Скорость скачивания: 0 байт/сек
Последний сидер: 3 месяца 14 дней 19 минут назад Последний личер: 3 месяца 14 дней 19 минут назад
Для скачивания торрента необходимо зарегистрироваться или войти на трекер.

Re: Гретель и Гензель / Gretel & Hansel (2020) BDRip 1080p от селезень | iTunes

Сообщение 7Max7 » 15 июл 2020, 17:18

Релизёру Спасибки, релизу "Золото" !
7Max7
Аватара пользователя
 
Раздал: 491.04 ГБ
Скачал: 3 ГБ
Ратио: 163.468
Сообщения: 413
Зарегистрирован: 14 фев 2014, 18:28

Форум Статистика

Кто сейчас на конференции

Сейчас этот форум просматривают: нет зарегистрированных пользователей и гости: 3

  • Похожие торренты
    Ответы
    Просмотры
    Последнее сообщение

Настройки

Вернуться в Фильмы / HDTV / HD / Blu-Ray

cron
Ресурс не предоставляет электронные версии произведений, а занимается лишь коллекционированием и каталогизацией ссылок, присылаемых и публикуемых на форуме нашими читателями. Если вы являетесь правообладателем какого-либо представленного материала и не желаете чтобы ссылка на него находилась в нашем каталоге, свяжитесь с нами и мы незамедлительно удалим её. Файлы для обмена на трекере предоставлены пользователями сайта, и администрация не несёт ответственности за их содержание. Просьба не заливать файлы, защищенные авторскими правами, а также файлы нелегального содержания!
tracker_cron