Модераторы: K15, Младшие модераторы, Модераторы

Превращение / Becoming (2020) BDRip 720p от селезень | iTunes

Сообщение stivi » 15 июл 2020, 14:35

  • Постеры
  • Скриншоты
Информация о фильме
Название: Превращение
Оригинальное название: Becoming
Год выхода: 2020
Страна: США
Студия: Traverse Media, BondIt Media Capital, Fearless Productions
Продолжительность: 01:38:37
Перевод: Профессиональный многоголосый | iTunes
Жанр: Ужасы

Режиссер: Омар Наим

В ролях:
Тоби Кеббелл, Пенелопа Митчелл, Джейсон Патрик, Джеффри Дэниэл Филлипс, Бет Бродерик, Стефен Райдер, Мелисса Болона, Лью Темпл, Джон Ньюберг, Zander Essex

О фильме:
Молодая супружеская пара Алекс и Лиза сталкивается с древним злом: Алекс оказывается во власти мрачной сущности, которая начинает вытеснять его собственную личность.

Качество: BDRip 720p
Видео: MPEG-4 AVC, 1280x640, 6319 Kbit/s, 23.976 fps
Аудио #01: 48 kHz, AC3, 5.1, 384 Kbps | iTunes | RUS |Превращение / Becoming (2020) BDRip 720p от селезень | iTunes
Аудио #02: 48 kHz, AC3, 5.1, 640 Kbps | Оригинал | ENG |
Субтитры: Русские (Full), английские

General
Unique ID : 104560139370306489971302927716193439733 (0x4EA98CE319601158DD7D602BCE408FF5)
Complete name : E:\Video111\Becoming.2020.BDRip.720p.seleZen.mkv
Format : Matroska
Format version : Version 4
File size : 5.06 GiB
Duration : 1 h 38 min
Overall bit rate : 7 345 kb/s
Movie name : Becoming 2020 from селезень
Encoded date : UTC 2020-06-23 11:00:00
Writing application : mkvmerge v40.0.0 ('Old Town Road + Pony') 64-bit
Writing library : libebml v1.3.9 + libmatroska v1.5.2

Video
ID : 1
Format : AVC
Format/Info : Advanced Video Codec
Format profile : High@L4.1
Format settings : CABAC / 9 Ref Frames
Format settings, CABAC : Yes
Format settings, Reference : 9 frames
Codec ID : V_MPEG4/ISO/AVC
Duration : 1 h 38 min
Bit rate : 6 319 kb/s
Width : 1 280 pixels
Height : 640 pixels
Display aspect ratio : 2.000
Frame rate mode : Constant
Frame rate : 23.976 (24000/1001) FPS
Color space : YUV
Chroma subsampling : 4:2:0
Bit depth : 8 bits
Scan type : Progressive
Bits/(Pixel*Frame) : 0.322
Stream size : 4.35 GiB (86%)
Title : Encoded by seleZen
Writing library : x264 core 142 r2431+42 c69a006 tMod [8-bit@all X86_64]
Encoding settings : cabac=1 / ref=9 / deblock=1:-2:-2 / analyse=0x3:0x133 / me=umh / subme=10 / psy=1 / fade_compensate=0.00 / psy_rd=1.00:0.00 / mixed_ref=1 / me_range=32 / chroma_me=1 / trellis=2 / 8x8dct=1 / cqm=0 / deadzone=21,11 / fast_pskip=0 / chroma_qp_offset=-2 / threads=24 / lookahead_threads=4 / sliced_threads=0 / nr=0 / decimate=0 / interlaced=0 / bluray_compat=0 / constrained_intra=0 / fgo=0 / bframes=9 / b_pyramid=2 / b_adapt=2 / b_bias=0 / direct=3 / weightb=1 / open_gop=0 / weightp=2 / keyint=240 / keyint_min=23 / scenecut=40 / intra_refresh=0 / rc_lookahead=50 / rc=crf / mbtree=0 / crf=17.3000 / qcomp=0.60 / qpmin=0:0:0 / qpmax=51:51:51 / qpstep=4 / vbv_maxrate=50000 / vbv_bufsize=62500 / crf_max=0.0 / nal_hrd=none / filler=0 / ip_ratio=1.40 / pb_ratio=1.30 / aq=3:0.80 / aq-sensitivity=10.00 / aq-factor=1.00:1.00:1.00 / aq2=0 / aq3=0
Language : English
Default : Yes
Forced : No

Audio #1
ID : 2
Format : AC-3
Format/Info : Audio Coding 3
Commercial name : Dolby Digital
Codec ID : A_AC3
Duration : 1 h 38 min
Bit rate mode : Constant
Bit rate : 384 kb/s
Channel(s) : 6 channels
Channel layout : L R C LFE Ls Rs
Sampling rate : 48.0 kHz
Frame rate : 31.250 FPS (1536 SPF)
Compression mode : Lossy
Stream size : 271 MiB (5%)
Title : iTunes
Language : Russian
Service kind : Complete Main
Default : Yes
Forced : Yes

Audio #2
ID : 3
Format : AC-3
Format/Info : Audio Coding 3
Commercial name : Dolby Digital
Codec ID : A_AC3
Duration : 1 h 38 min
Bit rate mode : Constant
Bit rate : 640 kb/s
Channel(s) : 6 channels
Channel layout : L R C LFE Ls Rs
Sampling rate : 48.0 kHz
Frame rate : 31.250 FPS (1536 SPF)
Compression mode : Lossy
Stream size : 451 MiB (9%)
Title : Original
Language : English
Service kind : Complete Main
Default : No
Forced : No

Text #1
ID : 4
Format : UTF-8
Codec ID : S_TEXT/UTF8
Codec ID/Info : UTF-8 Plain Text
Duration : 1 h 31 min
Bit rate : 64 b/s
Count of elements : 918
Stream size : 43.6 KiB (0%)
Title : Full
Language : Russian
Default : No
Forced : No

Text #2
ID : 5
Format : UTF-8
Codec ID : S_TEXT/UTF8
Codec ID/Info : UTF-8 Plain Text
Duration : 1 h 34 min
Bit rate : 36 b/s
Count of elements : 947
Stream size : 25.3 KiB (0%)
Title : Full
Language : English
Default : No
Forced : No

Text #3
ID : 6
Format : UTF-8
Codec ID : S_TEXT/UTF8
Codec ID/Info : UTF-8 Plain Text
Duration : 1 h 37 min
Bit rate : 37 b/s
Count of elements : 1010
Stream size : 26.9 KiB (0%)
Title : SDH
Language : English
Default : No
Forced : No

Menu
00:00:00.000 : en:Chapter 1
00:12:06.225 : en:Chapter 2
00:19:45.809 : en:Chapter 3
00:29:54.167 : en:Chapter 4
00:40:59.123 : en:Chapter 5
00:51:16.114 : en:Chapter 6
01:01:36.943 : en:Chapter 7
01:10:44.031 : en:Chapter 8
01:18:46.888 : en:Chapter 9
01:24:47.290 : en:Chapter 10
01:31:49.670 : en:Chapter 11
stivi
Аватара пользователя
 
Раздал: 0 байт
Скачал: 0 байт
Ратио: Inf.
Сообщения: 29
Зарегистрирован: 12 июл 2020, 13:51
Откуда: Moon
  • Торрент
Автор: stivi Хэш: ---
Добавлен: 15 июл 2020, 14:35 Приватный: Нет (DHT включён)
Статус: Проверен
Размер: 5.06 ГБ (5 432 391 637 байт)
Изменил:
---
Скачали: 11249 (Раздающих: 0%)
Причина:
---
Здоровье: 100%
Сидеров: 407 Личеров: 19
Скорость раздачи: 0 байт/сек Скорость скачивания: 0 байт/сек
Последний сидер: 3 месяца 13 дней 23 часа 9 минут 59 секунд назад Последний личер: 3 месяца 13 дней 23 часа 9 минут 59 секунд назад
Для скачивания торрента необходимо зарегистрироваться или войти на трекер.

Re: Превращение / Becoming (2020) BDRip 720p от селезень | iTunes

Сообщение 7Max7 » 15 июл 2020, 17:23

Релиз заслуживает "Золото", релизёр Спасибки !)
7Max7
Аватара пользователя
 
Раздал: 491.04 ГБ
Скачал: 3 ГБ
Ратио: 163.468
Сообщения: 413
Зарегистрирован: 14 фев 2014, 18:28

Форум Статистика

Кто сейчас на конференции

Сейчас этот форум просматривают: нет зарегистрированных пользователей и гости: 3

  • Похожие торренты
    Ответы
    Просмотры
    Последнее сообщение

Настройки

Вернуться в Фильмы / HDTV / HD / Blu-Ray

Ресурс не предоставляет электронные версии произведений, а занимается лишь коллекционированием и каталогизацией ссылок, присылаемых и публикуемых на форуме нашими читателями. Если вы являетесь правообладателем какого-либо представленного материала и не желаете чтобы ссылка на него находилась в нашем каталоге, свяжитесь с нами и мы незамедлительно удалим её. Файлы для обмена на трекере предоставлены пользователями сайта, и администрация не несёт ответственности за их содержание. Просьба не заливать файлы, защищенные авторскими правами, а также файлы нелегального содержания!
tracker_cron