Модераторы: Младшие модераторы, Модераторы

Мое прекрасное лето с Софи / Une fille facile (Ребекка Злотовски) [2019, Драма, комедия, WEB-DL 1080p | iTunes]

Сообщение Sovetnik » 08 фев 2020, 10:31

Мое прекрасное лето с Софи / Une fille facile


#777


Информация о фильме
Название: Мое прекрасное лето с Софи
Оригинальное название: Une fille facile
Год выхода: 2019
Страна: Франция
Студия: Canal+ [fr], Les Films Velvet, France 3 Cinéma
Продолжительность: 01:28:26
Перевод: Дублированный | iTunes
Жанр: Драма, комедия

Режиссер: Ребекка Злотовски

В ролях:
Мина Фарид, Захия Дехар, Бенуа Мажимель, Нуно Лопеш, Клотильда Куро, Любна Абидар, Лакдхар Дриди, Анри-Ноэль Табари, Седрик Аппиетто, Микаэль Мильорини, Матиас Бен Аму, Лиз Ломи, Мартин Гузман, Жюли Аллион, Лолита Шамма

О фильме:
Найме 16 лет, она живёт в Каннах. Учебный год закончился, впереди каникулы — в компании с приехавшей из Парижа 22-летней кузиной Софи, готовой научить подросшую сестрёнку правилам взрослой жизни. Лови момент — её главный девиз. А это значит — богатые и щедрые мужчины для того и существуют, чтобы делать счастливыми юных красавиц и дарить им удовольствия. Такое море соблазнов! Отказаться невозможно. Если, конечно, забыть, что за удовольствия положено платить...



Файл
Кодек: AVC
Качество: WEB-DL 1080p
Видео: MPEG-4 AVC, 4523 Kбит/с, 1912x804, 25.000 кадр/с
Аудио #1: Русский (АС3, 6 ch, 384 Кбит/с, 48.0 KHz) Профессиональный (дублированный) iTunes
Аудио #2: Французский (АС3, 6 ch, 384 Кбит/с, 48.0 KHz)
Субтитры: нет
Источник: Une.Fille.Facile.2019.FRENCH.1080p.WEB.H264-PREUMS
General
Unique ID : 196505813318118174492078491307328594031 (0x93D5A49C67B7E5328F05CA484636E06F)
Complete name : Une.Fille.Facile.2019.French.WEB-DL.1080p.mkv
Format : Matroska
Format version : Version 4
File size : 3.27 GiB
Duration : 1 h 28 min
Overall bit rate : 5 293 kb/s
Encoded date : UTC 2020-02-06 13:32:27
Writing application : mkvmerge v7.1.0 ('Good Love') 64bit built on Jul 27 2014 13:06:55
Writing library : libebml v1.3.0 + libmatroska v1.4.1

Video
ID : 1
Format : AVC
Format/Info : Advanced Video Codec
Format profile : High@L4
Format settings : CABAC / 5 Ref Frames
Format settings, CABAC : Yes
Format settings, Reference fra : 5 frames
Codec ID : V_MPEG4/ISO/AVC
Duration : 1 h 28 min
Bit rate : 4 523 kb/s
Width : 1 912 pixels
Height : 804 pixels
Display aspect ratio : 2.40:1
Frame rate mode : Constant
Frame rate : 25.000 FPS
Color space : YUV
Chroma subsampling : 4:2:0
Bit depth : 8 bits
Scan type : Progressive
Bits/(Pixel*Frame) : 0.118
Stream size : 2.79 GiB (85%)
Language : French
Default : Yes
Forced : No
Color range : Limited
Color primaries : BT.709
Transfer characteristics : BT.709
Matrix coefficients : BT.709

Audio #1
ID : 2
Format : AC-3
Format/Info : Audio Coding 3
Commercial name : Dolby Digital
Codec ID : A_AC3
Duration : 1 h 28 min
Bit rate mode : Constant
Bit rate : 384 kb/s
Channel(s) : 6 channels
Channel layout : L R C LFE Ls Rs
Sampling rate : 48.0 kHz
Frame rate : 31.250 FPS (1536 SPF)
Compression mode : Lossy
Stream size : 243 MiB (7%)
Title : DUB | iTunes
Language : Russian
Service kind : Complete Main
Default : Yes
Forced : No

Audio #2
ID : 3
Format : AC-3
Format/Info : Audio Coding 3
Commercial name : Dolby Digital
Codec ID : A_AC3
Duration : 1 h 28 min
Bit rate mode : Constant
Bit rate : 384 kb/s
Channel(s) : 6 channels
Channel layout : L R C LFE Ls Rs
Sampling rate : 48.0 kHz
Frame rate : 31.250 FPS (1536 SPF)
Compression mode : Lossy
Stream size : 243 MiB (7%)
Language : French
Service kind : Complete Main
Default : No
Forced : No

Menu
00:00:00.000 : en:Chapitre 01
00:08:00.000 : en:Chapitre 02
00:16:00.000 : en:Chapitre 03
00:24:00.000 : en:Chapitre 04
00:32:00.000 : en:Chapitre 05
00:40:00.000 : en:Chapitre 06
00:48:00.000 : en:Chapitre 07
00:56:00.000 : en:Chapitre 08
01:04:00.000 : en:Chapitre 09
01:12:00.000 : en:Chapitre 10
Sovetnik
Аватара пользователя
 
Раздал: 32.13 ТБ
Скачал: 13.11 ГБ
Ратио: 2510.256
Сообщения: 1398
Зарегистрирован: 13 фев 2014, 05:19
  • Торрент
Автор: Sovetnik Хэш: ---
Добавлен: 08 фев 2020, 10:31 Приватный: Нет (DHT включён)
Статус: Проверен
Размер: 3.27 ГБ (3 510 901 488 байт)
Изменил:
---
Скачали: 0 (Раздающих: 0%)
Причина:
---
Здоровье: 0%
Сидеров: 0 Личеров: 0
Скорость раздачи: 0 байт/сек Скорость скачивания: 0 байт/сек
Последний сидер: Нет Последний личер: Нет
Для скачивания торрента необходимо зарегистрироваться или войти на трекер.

Форум Статистика

Кто сейчас на конференции

Сейчас этот форум просматривают: нет зарегистрированных пользователей и гости: 1

  • Похожие торренты
    Ответы
    Просмотры
    Последнее сообщение

Настройки

Вернуться в Фильмы / HDTV / HD / Blu-Ray

cron
Ресурс не предоставляет электронные версии произведений, а занимается лишь коллекционированием и каталогизацией ссылок, присылаемых и публикуемых на форуме нашими читателями. Если вы являетесь правообладателем какого-либо представленного материала и не желаете чтобы ссылка на него находилась в нашем каталоге, свяжитесь с нами и мы незамедлительно удалим её. Файлы для обмена на трекере предоставлены пользователями сайта, и администрация не несёт ответственности за их содержание. Просьба не заливать файлы, защищенные авторскими правами, а также файлы нелегального содержания!
cron