Модераторы: Младшие модераторы, Модераторы

Сумасшедший пришелец / Feng kuang de wai xing ren / Crazy Alien (Нин Хао) [2019, комедия, фантастика, приключения, WEBRip 1080p | L]

Сообщение Sovetnik » 08 фев 2020, 08:05

Сумасшедший пришелец / Feng kuang de wai xing ren / Crazy Alien


#777


Информация о фильме
Название: Сумасшедший пришелец
Оригинальное название: Feng kuang de wai xing ren / Crazy Alien
Год выхода: 2019
Страна: Китай
Продолжительность: 01:54:54
Перевод: Любительский (многоголосый закадровый) ["Синема УС"]
Жанр: комедия, фантастика, приключения

Режиссер: Нин Хао

Сценарий: Стивен Гари Бэнкс, Дун Жуньнянь, Лю Сяодань

В ролях:
Хуан Бо, Шэнь Тэн, Кэт Нельсон, Игорь Филиппов, Том Пелфри, Мэттью Моррисон, Дэниэл Хью Келли, Сюй Чжэн, Лю Хуа, Юй Хэвэй, Мекаел Тернер и др.

О фильме:
Высшая инопланетная раса посылает своего делегата, чтобы установить дипломатические отношения с землянами. Но представитель Соединённых Штатов Амарники, как самой развитой нации на планете, делает селфи во время церемонии и в результате последовавшей за этим цепочки происшествий инопланетный корабль падает в реку, а сам пришелец — в китайском парке развлечений. Инопланетный гость всей своей инопланетной душой презирает недоразвитую расу землян, а попав в руки двух неудачников-аниматоров, только сильнее убеждается в своей правоте. Те принимают его за конголезскую лысую обезьяну и, случайно отобрав устройство для телекинеза и управления кораблём, начинают жестокую дрессировку.





Реклама отсутствует.

Файл
Формат видео: MKV
Качество: WEBRip 1080p
Видео: 1920x750 (2.560), 25.000 fps, AVC MPEG-4 (х.264), High@L4 ~2432 kbps, 0.068 bit/pixel
Аудио#1: 48 kHz, AC3 Dolby Digital, 2/0 (L,R) ch, ~192 kbps | Русский
Аудио#2: 48 kHz, AAC, 2 ch, ~256 kbps | Китайский
Субтитры: английские (хардсаб), китайские (хардсаб)

General
Unique ID : 205956540806181684976104359341563860191 (0x9AF1C973770001A698F672EDF0A854DF)
Complete name : E:Crazy.Alien.2019.WebRip.1080p.Rus.Chi.mkv
Format : Matroska
Format version : Version 4 / Version 2
File size : 2.31 GiB
Duration : 1 h 54 min
Overall bit rate : 2 882 kb/s
Encoded date : UTC 2019-12-25 15:19:29
Writing application : mkvmerge v9.2.0 ('Photograph') 64bit
Writing library : libebml v1.3.3 + libmatroska v1.4.4

Video
ID : 1
Format : AVC
Format/Info : Advanced Video Codec
Format profile : High@L4
Format settings, CABAC : Yes
Format settings, ReFrames : 4 frames
Codec ID : V_MPEG4/ISO/AVC
Duration : 1 h 54 min
Bit rate : 2 432 kb/s
Width : 1 920 pixels
Height : 750 pixels
Display aspect ratio : 2.560
Frame rate mode : Constant
Frame rate : 25.000 FPS
Color space : YUV
Chroma subsampling : 4:2:0
Bit depth : 8 bits
Scan type : Progressive
Bits/(Pixel*Frame) : 0.068
Stream size : 1.95 GiB (84%)
Writing library : x264 core 142 r2 ac76440
Encoding settings : cabac=1 / ref=4 / deblock=1:0:0 / analyse=0x3:0x113 / me=umh / subme=7 / psy=1 / psy_rd=1.00:0.00 / mixed_ref=1 / me_range=32 / chroma_me=1 / trellis=1 / 8x8dct=1 / cqm=0 / deadzone=21,11 / fast_pskip=1 / chroma_qp_offset=-2 / threads=30 / lookahead_threads=5 / sliced_threads=0 / nr=0 / decimate=1 / interlaced=0 / bluray_compat=0 / constrained_intra=0 / bframes=3 / b_pyramid=0 / b_adapt=1 / b_bias=0 / direct=1 / weightb=1 / open_gop=0 / weightp=2 / keyint=25 / keyint_min=13 / scenecut=0 / intra_refresh=0 / rc_lookahead=25 / rc=abr / mbtree=1 / bitrate=2432 / ratetol=1.0 / qcomp=0.60 / qpmin=0 / qpmax=69 / qpstep=4 / vbv_maxrate=3161 / vbv_bufsize=3161 / nal_hrd=none / filler=0 / ip_ratio=1.40 / aq=1:1.00
Default : Yes
Forced : No

Audio #1
ID : 2
Format : AC-3
Format/Info : Audio Coding 3
Format settings, Endianness : Big
Codec ID : A_AC3
Duration : 1 h 54 min
Bit rate mode : Constant
Bit rate : 192 kb/s
Channel(s) : 2 channels
Channel positions : Front: L R
Sampling rate : 48.0 kHz
Frame rate : 31.250 FPS (1536 spf)
Bit depth : 16 bits
Compression mode : Lossy
Delay relative to video : -108 ms
Stream size : 158 MiB (7%)
Language : Russian
Service kind : Complete Main
Default : Yes
Forced : No

Audio #2
ID : 3
Format : AAC
Format/Info : Advanced Audio Codec
Format profile : LC
Codec ID : A_AAC
Duration : 1 h 54 min
Bit rate : 256 kb/s
Channel(s) : 2 channels
Channel positions : Front: L R
Sampling rate : 48.0 kHz
Frame rate : 46.875 FPS (1024 spf)
Compression mode : Lossy
Delay relative to video : -108 ms
Stream size : 210 MiB (9%)
Language : Chinese
Default : No
Forced : No
Sovetnik
Аватара пользователя
 
Раздал: 32.13 ТБ
Скачал: 13.11 ГБ
Ратио: 2510.256
Сообщения: 1398
Зарегистрирован: 13 фев 2014, 05:19
  • Торрент
Автор: Sovetnik Хэш: ---
Добавлен: 08 фев 2020, 08:05 Приватный: Нет (DHT включён)
Статус: Проверен
Размер: 2.31 ГБ (2 483 611 484 байт)
Изменил:
---
Скачали: 0 (Раздающих: 0%)
Причина:
---
Здоровье: 0%
Сидеров: 0 Личеров: 0
Скорость раздачи: 0 байт/сек Скорость скачивания: 0 байт/сек
Последний сидер: Нет Последний личер: Нет
Для скачивания торрента необходимо зарегистрироваться или войти на трекер.

Форум Статистика

Кто сейчас на конференции

Сейчас этот форум просматривают: нет зарегистрированных пользователей и гости: 1

  • Похожие торренты
    Ответы
    Просмотры
    Последнее сообщение

Настройки

Вернуться в Фильмы / HDTV / HD / Blu-Ray

cron
Ресурс не предоставляет электронные версии произведений, а занимается лишь коллекционированием и каталогизацией ссылок, присылаемых и публикуемых на форуме нашими читателями. Если вы являетесь правообладателем какого-либо представленного материала и не желаете чтобы ссылка на него находилась в нашем каталоге, свяжитесь с нами и мы незамедлительно удалим её. Файлы для обмена на трекере предоставлены пользователями сайта, и администрация не несёт ответственности за их содержание. Просьба не заливать файлы, защищенные авторскими правами, а также файлы нелегального содержания!
cron