Модераторы: K15, Младшие модераторы, Модераторы

(Шансон) [STREAM] Стас Михайлов - Коллекция (10 релизов 2014-2020) FLAC (tracks), lossless

Сообщение 7Max7 » 29 ноя 2020, 16:40



Жанр: Шансон
Носитель: Stream
Год издания: 2014-2020
Страна исполнителя (группы): Россия
Аудиокодек: FLAC (*.flac)
Тип рипа: tracks
Продолжительность: 09:05:13
Источник: Deezer
Наличие сканов в содержимом раздачи: нет
#77701. Всё для тебя
02. Только ты...
03. Нежданная любовь
04. Королева
05. За женщин всех
06. Родная
07. Где ты?
08. На крыльях любви
09. Живу и таю
10. Два сердца
11. Ты моя
12. Свеча
13. Озноб души
14. Без тебя
15. К тебе иду
16. Спаси меня
17. Ты...
18. Мир без тебя
19. Я ждал
20. Две души
21. Приди ко мне
22. Знай об этом
23. Не обижай любовь
24. Моя любовь
25. Ты только для меня
Код: Выделить всё
foobar2000 1.3.19 / Замер динамического диапазона (DR) 1.1.1
Дата отчёта:  2020-06-07 20:11:04
--------------------------------------------------------------------------------
Анализ:   Стас Михайлов / Любимым женщинам
--------------------------------------------------------------------------------
DR         Пики         RMS           Продолжительность трека
--------------------------------------------------------------------------------
DR8       -0.29 дБ    -9.34 дБ      3:54 01-Всё для тебя
DR6       -0.10 дБ    -7.32 дБ      3:40 02-Только ты...
DR8        0.00 дБ    -9.35 дБ      3:56 03-Нежданная любовь
DR6       -0.18 дБ    -8.07 дБ      4:05 04-Королева
DR8       -0.21 дБ    -9.15 дБ      3:39 05-За женщин всех
DR6       -0.32 дБ    -7.90 дБ      3:38 06-Родная
DR5       -0.10 дБ    -6.63 дБ      3:30 07-Где ты?
DR6        0.00 дБ    -8.58 дБ      3:21 08-На крыльях любви
DR8       -0.20 дБ    -9.60 дБ      4:17 09-Живу и таю
DR6       -0.20 дБ    -7.37 дБ      3:27 10-Два сердца
DR5       -0.10 дБ    -6.95 дБ      4:29 11-Ты моя
DR6       -0.39 дБ    -7.77 дБ      3:56 12-Свеча
DR6        0.00 дБ    -7.63 дБ      3:53 13-Озноб души
DR8       -0.21 дБ    -9.46 дБ      4:20 14-Без тебя
DR7       -0.29 дБ   -10.16 дБ      4:27 15-К тебе иду
DR5       -0.10 дБ    -8.26 дБ      4:24 16-Спаси меня
DR6        0.00 дБ    -7.67 дБ      3:42 17-Ты...
DR6       -0.10 дБ    -6.63 дБ      3:26 18-Мир без тебя
DR10      -0.03 дБ   -11.85 дБ      3:42 19-Я ждал
DR8       -1.13 дБ   -11.15 дБ      3:28 20-Две души
DR12      -1.30 дБ   -14.90 дБ      4:21 21-Приди ко мне
DR7       -0.29 дБ    -8.46 дБ      3:40 22-Знай об этом
DR10      -0.03 дБ   -11.93 дБ      4:21 23-Не обижай любовь
DR5       -0.10 дБ    -6.74 дБ      4:00 24-Моя любовь
DR9       -1.13 дБ   -12.02 дБ      4:10 25-Ты только для меня
--------------------------------------------------------------------------------
Количество треков: 25
Реальные значения DR: DR7
Частота:   44100 Гц
Каналов:   2
Разрядность:   16
Битрейт:   974 кбит/с
Кодек:   FLAC
================================================================================
Код: Выделить всё
AUDIOCHECKER v2.0 beta (build 457) - by Dester - opdester@freemail.hu
~~~~~~~~~~~~~~~~~~~~~~~~~~~~~~~~~~
-=== DO NOT EDIT THIS FILE! ===-
Path: ...\Любимым женщинам (Album)
001 -=- 01 Всё для тебя.flac -=- CDDA (100%)
002 -=- 02 Только ты.flac -=- CDDA (100%)
003 -=- 03 Нежданная любовь.flac -=- CDDA (100%)
004 -=- 04 Королева.flac -=- CDDA (100%)
005 -=- 05 За женщин всех.flac -=- CDDA (100%)
006 -=- 06 Родная.flac -=- CDDA (100%)
007 -=- 07 Где ты.flac -=- CDDA (99%)
008 -=- 08 На крыльях любви.flac -=- CDDA (100%)
009 -=- 09 Живу и таю.flac -=- CDDA (100%)
010 -=- 10 Два сердца.flac -=- CDDA (100%)
011 -=- 11 Ты моя.flac -=- CDDA (99%)
012 -=- 12 Свеча.flac -=- CDDA (100%)
013 -=- 13 Озноб души.flac -=- CDDA (100%)
014 -=- 14 Без тебя.flac -=- CDDA (99%)
015 -=- 15 К тебе иду.flac -=- CDDA (100%)
016 -=- 16 Спаси меня.flac -=- CDDA (100%)
017 -=- 17 Ты.flac -=- CDDA (100%)
018 -=- 18 Мир без тебя.flac -=- CDDA (100%)
019 -=- 19 Я ждал.flac -=- CDDA (100%)
020 -=- 20 Две души.flac -=- CDDA (100%)
021 -=- 21 Приди ко мне.flac -=- CDDA (100%)
022 -=- 22 Знай об этом.flac -=- CDDA (100%)
023 -=- 23 Не обижай любовь.flac -=- MPEG (100%)
024 -=- 24 Моя любовь.flac -=- CDDA (100%)
025 -=- 25 Ты только для меня.flac -=- CDDA (100%)
Summary 95,88% CDDA
238368132
#77701. Там
02. Без тебя
03. Ну, вот и всё
04. Всё для тебя
05. Золотое сердце
06. Мама
07. Страдая, падая, взлетая
08. Королева
09. Где ты?
10. Нежданная любовь
11. Только ты
12. Свеча
13. Большая медведица
14. За женщин всех
15. Живу и таю
16. Париж, Париж
17. Холодно
18. Ты…
19. Небеса
20. Лети душа
21. Родная
22. Два сердца
23. Летим
24. Берега мечты
25. Живой
26. Летит по небу
27. Жене
28. Жизнь-река
29. Мир без тебя
30. Странник
31. Танго
32. На крыльях любви
33. Покаяние
34. Ты моя
35. Спаси меня
36. Ушла
37. Между небом и землёй
38. Разрушительница
39. Веди меня, бог мой
40. Жизнь обман
41. По тонкому льду
42. Женщина-обман
43. Есенину
44. Ветер-бродяга
45. К тебе иду…
46. Женщина-вамп
47. Моя любовь
48. Русь
49. За воротами времени
50. Приказ
51. Солдат
52. Звездой на нёбо
53. Ты одна
54. Под прицелом объективов
55. Ты навсегда моя
56. Посланница небес
57. Берега
58. Я ждал
59. Живи и знай
60. Петербург-Москва
61. Офицер белый (Live)
62. Отпустим
Код: Выделить всё
foobar2000 1.3.19 / Замер динамического диапазона (DR) 1.1.1
Дата отчёта:  2020-06-07 20:15:45
--------------------------------------------------------------------------------
Анализ:   Стас Михайлов, Emin / Лучшие песни (Deluxe edition) (1)
          Стас Михайлов, Зара / Лучшие песни (Deluxe edition) (2)
          Стас Михайлов, Таисия Повалий / Лучшие песни (Deluxe edition) (3)
          Стас Михайлов / Лучшие песни (Deluxe edition) (4-62)
--------------------------------------------------------------------------------
DR         Пики         RMS           Продолжительность трека
--------------------------------------------------------------------------------
DR5       -0.42 дБ    -6.27 дБ      3:30 57-Берега
DR6       -0.10 дБ    -6.97 дБ      3:38 23-Летим
DR6       -0.44 дБ    -7.48 дБ      3:36 62-Отпусти
DR6       -0.38 дБ    -7.46 дБ      3:40 01-Там
DR8       -0.21 дБ    -9.46 дБ      4:20 02-Без тебя
DR6       -0.49 дБ    -7.11 дБ      4:05 03-Ну, вот и всё
DR8       -0.29 дБ    -9.34 дБ      3:54 04-Всё для тебя
DR6       -0.27 дБ    -7.59 дБ      3:47 05-Золотое сердце
DR6       -2.59 дБ   -10.30 дБ      3:27 06-Мама
DR6       -0.33 дБ    -8.07 дБ      3:46 07-Страдая, падая, взлетая
DR6       -0.20 дБ    -7.96 дБ      4:07 08-Королева вдохновения
DR5       -0.10 дБ    -6.63 дБ      3:30 09-Где ты?
DR8        0.00 дБ    -9.35 дБ      3:56 10-Нежданная любовь
DR6       -0.10 дБ    -7.32 дБ      3:40 11-Только ты
DR6       -0.39 дБ    -7.77 дБ      3:56 12-Свеча
DR6       -0.30 дБ    -8.58 дБ      3:58 13-Большая медведица
DR8       -0.21 дБ    -9.15 дБ      3:39 14-За женщин всех
DR7       -0.29 дБ    -8.75 дБ      3:53 15-Живу и таю
DR6       -0.39 дБ    -6.78 дБ      3:57 16-Париж, париж
DR6       -0.32 дБ    -7.92 дБ      4:22 17-Холодно
DR6        0.00 дБ    -7.67 дБ      3:42 18-Ты...
DR6        0.00 дБ    -8.07 дБ      5:28 19-Небеса
DR6       -0.20 дБ    -7.26 дБ      3:38 20-Лети душа
DR6       -0.32 дБ    -7.90 дБ      3:38 21-Родная
DR6       -0.20 дБ    -7.37 дБ      3:27 22-Два сердца
DR7       -2.07 дБ   -10.46 дБ      3:53 24-Берега мечты
DR6       -0.44 дБ    -8.57 дБ      5:52 25-Живой...
DR4        0.00 дБ    -6.41 дБ      3:52 26-Летит по небу
DR9       -0.20 дБ   -11.08 дБ      3:36 27-Жене
DR6       -0.10 дБ    -6.96 дБ      4:30 28-Жизнь-река
DR6       -0.10 дБ    -6.63 дБ      3:26 29-Мир без тебя
DR6       -0.10 дБ    -7.92 дБ      3:41 30-Странник
DR6       -0.29 дБ    -7.65 дБ      3:40 31-Танго
DR6        0.00 дБ    -8.58 дБ      3:21 32-На крыльях любви
DR6       -0.56 дБ    -8.87 дБ      5:26 33-Покаяние
DR5       -0.10 дБ    -6.95 дБ      4:29 34-Ты моя
DR5       -0.10 дБ    -8.26 дБ      4:24 35-Спаси меня
DR5        0.00 дБ    -7.70 дБ      3:48 36-Ушла
DR6        0.00 дБ    -8.53 дБ      3:55 37-Между небом и землёй
DR6       -0.44 дБ    -6.81 дБ      3:27 38-Разрушительница
DR5       -0.10 дБ    -7.03 дБ      4:59 39-Веди меня, бог мой
DR9       -0.21 дБ   -10.48 дБ      3:57 40-Жизнь-обман
DR5        0.00 дБ    -7.98 дБ      4:07 41-По тонкому льду
DR6       -0.56 дБ    -8.06 дБ      3:50 42-Женщина-обман
DR6       -0.10 дБ    -8.70 дБ      3:37 43-Есенину
DR13       0.00 дБ   -15.52 дБ      4:33 44-Ветер бродяга
DR7       -0.29 дБ   -10.16 дБ      4:27 45-К тебе иду
DR5       -0.10 дБ    -6.83 дБ      3:21 46-Женщина-вамп
DR5       -0.10 дБ    -6.74 дБ      4:00 47-Моя любовь
DR6       -0.10 дБ    -7.12 дБ      3:50 48-Русь
DR7       -0.29 дБ   -10.03 дБ      3:36 49-За воротами времени...
DR5       -0.30 дБ    -7.05 дБ      3:33 50-Приказ
DR6       -0.10 дБ    -7.88 дБ      3:54 51-Солдат
DR7       -0.29 дБ    -8.51 дБ      3:15 52-Звездой на нёбо
DR10      -0.03 дБ   -11.44 дБ      3:20 53-Ты одна
DR5       -0.36 дБ    -7.68 дБ      3:08 54-Под прицелом объективов
DR6       -0.33 дБ    -7.87 дБ      4:36 55-Ты навсегда моя
DR6       -0.22 дБ    -7.46 дБ      3:35 56-Посланница небес
DR10      -0.03 дБ   -11.85 дБ      3:42 58-Я ждал
DR6       -0.18 дБ    -7.90 дБ      3:16 59-Живи и знай
DR6       -0.42 дБ    -7.54 дБ      4:06 60-Петербург-москва
DR7       -0.20 дБ   -10.95 дБ      3:37 61-Офицер белый (Live)
--------------------------------------------------------------------------------
Количество треков: 62
Реальные значения DR: DR6
Частота:   44100 Гц
Каналов:   2
Разрядность:   16
Битрейт:   941 кбит/с
Кодек:   FLAC
Код: Выделить всё
AUDIOCHECKER v2.0 beta (build 457) - by Dester - opdester@freemail.hu
~~~~~~~~~~~~~~~~~~~~~~~~~~~~~~~~~~
-=== DO NOT EDIT THIS FILE! ===-
Path: ...\Лучшие песни (Deluxe edition) (Album)
001 -=- 01 Там.flac -=- CDDA (100%)
002 -=- 02 Без тебя.flac -=- CDDA (99%)
003 -=- 03 Ну вот и всё.flac -=- CDDA (100%)
004 -=- 04 Всё для тебя.flac -=- CDDA (100%)
005 -=- 05 Золотое сердце.flac -=- CDDA (100%)
006 -=- 06 Мама.flac -=- CDDA (100%)
007 -=- 07 Страдая падая взлетая.flac -=- CDDA (100%)
008 -=- 08 Королева вдохновения.flac -=- CDDA (100%)
009 -=- 09 Где ты.flac -=- CDDA (99%)
010 -=- 10 Нежданная любовь.flac -=- CDDA (100%)
011 -=- 11 Только ты.flac -=- CDDA (100%)
012 -=- 12 Свеча.flac -=- CDDA (100%)
013 -=- 13 Большая медведица.flac -=- CDDA (100%)
014 -=- 14 За женщин всех.flac -=- CDDA (100%)
015 -=- 15 Живу и таю.flac -=- CDDA (100%)
016 -=- 16 Париж париж.flac -=- CDDA (100%)
017 -=- 17 Холодно.flac -=- CDDA (100%)
018 -=- 18 Ты.flac -=- CDDA (100%)
019 -=- 19 Небеса.flac -=- CDDA (100%)
020 -=- 20 Лети душа.flac -=- CDDA (100%)
021 -=- 21 Родная.flac -=- CDDA (100%)
022 -=- 22 Два сердца.flac -=- CDDA (100%)
023 -=- 23 Летим.flac -=- CDDA (100%)
024 -=- 24 Берега мечты.flac -=- MPEG (95%)
025 -=- 25 Живой.flac -=- CDDA (100%)
026 -=- 26 Летит по небу.flac -=- CDDA (100%)
027 -=- 27 Жене.flac -=- CDDA (99%)
028 -=- 28 Жизнь-река.flac -=- CDDA (99%)
029 -=- 29 Мир без тебя.flac -=- CDDA (100%)
030 -=- 30 Странник.flac -=- CDDA (100%)
031 -=- 31 Танго.flac -=- CDDA (100%)
032 -=- 32 На крыльях любви.flac -=- CDDA (100%)
033 -=- 33 Покаяние.flac -=- CDDA (100%)
034 -=- 34 Ты моя.flac -=- CDDA (99%)
035 -=- 35 Спаси меня.flac -=- CDDA (100%)
036 -=- 36 Ушла.flac -=- MPEG (95%)
037 -=- 37 Между небом и землёй.flac -=- MPEG (95%)
038 -=- 38 Разрушительница.flac -=- CDDA (100%)
039 -=- 39 Веди меня бог мой.flac -=- CDDA (100%)
040 -=- 40 Жизнь-обман.flac -=- CDDA (100%)
041 -=- 41 По тонкому льду.flac -=- CDDA (100%)
042 -=- 42 Женщина-обман.flac -=- CDDA (100%)
043 -=- 43 Есенину.flac -=- CDDA (100%)
044 -=- 44 Ветер бродяга.flac -=- CDDA (100%)
045 -=- 45 К тебе иду.flac -=- CDDA (100%)
046 -=- 46 Женщина-вамп.flac -=- CDDA (100%)
047 -=- 47 Моя любовь.flac -=- CDDA (100%)
048 -=- 48 Русь.flac -=- CDDA (100%)
049 -=- 49 За воротами времени.flac -=- CDDA (100%)
050 -=- 50 Приказ.flac -=- MPEG (93%)
051 -=- 51 Солдат.flac -=- CDDA (100%)
052 -=- 52 Звездой на нёбо.flac -=- CDDA (100%)
053 -=- 53 Ты одна.flac -=- MPEG (100%)
054 -=- 54 Под прицелом объективов.flac -=- CDDA (100%)
055 -=- 55 Ты навсегда моя.flac -=- CDDA (100%)
056 -=- 56 Посланница небес.flac -=- CDDA (100%)
057 -=- 57 Берега.flac -=- CDDA (100%)
058 -=- 58 Я ждал.flac -=- CDDA (100%)
059 -=- 59 Живи и знай.flac -=- MPEG (95%)
060 -=- 60 Петербург-москва.flac -=- MPEG (99%)
061 -=- 61 Офицер белый (Live).flac -=- CDDA (100%)
062 -=- 62 Отпусти.flac -=- CDDA (100%)
Summary 89,08% CDDA
211144964
#77701-Спящая красавица
02-Отпусти
03-Время прощаться
04-Берега
05-Летим
06-Королева вдохновения (Live)
07-Странник (Live)
08-Душа (Live)
09-Холодно (Live)
10-Всё для тебя (Live)
11-Птицей раненой (Live)
12-Две души (Live)
13-Уходите (Live)
14-Поделим небо
15-Небеса (Live)
16-Отпускаю (Live)
17-Мама (Live)
18-Всё для тебя (Live)
19-Если бы не ты (Live)
Код: Выделить всё
foobar2000 1.3.19 / Замер динамического диапазона (DR) 1.1.1
Дата отчёта:  2020-06-07 20:20:29
--------------------------------------------------------------------------------
Анализ:   Стас Михайлов, Emin / В кругу друзей (Лучшие дуэты) (1)
          Стас Михайлов, SOPRANO ТУРЕЦКОГО / В кругу друзей (Лучшие дуэты) (2)
          Стас Михайлов, Александр Буйнов / В кругу друзей (Лучшие дуэты) (3)
          Стас Михайлов, Алексей Глызин / В кругу друзей (Лучшие дуэты) (4)
          Стас Михайлов, Анастасия Спиридонова / В кругу друзей (Лучшие дуэты) (5)
          Стас Михайлов, Ани Лорак / В кругу друзей (Лучшие дуэты) (6)
          Стас Михайлов, Григорий Лепс / В кругу друзей (Лучшие дуэты) (7)
          Стас Михайлов, Зара / В кругу друзей (Лучшие дуэты) (8-10)
          Стас Михайлов, Иосиф Кобзон / В кругу друзей (Лучшие дуэты) (11)
          Стас Михайлов, Лайма Вайкуле / В кругу друзей (Лучшие дуэты) (12)
          Стас Михайлов, Олег Газманов / В кругу друзей (Лучшие дуэты) (13)
          Стас Михайлов, Песняры / В кругу друзей (Лучшие дуэты) (14)
          Стас Михайлов, Сосо Павлиашвили / В кругу друзей (Лучшие дуэты) (15)
          Стас Михайлов, Таисия Повалий / В кругу друзей (Лучшие дуэты) (16)
          Стас Михайлов, Тина Кароль / В кругу друзей (Лучшие дуэты) (17)
          Стас Михайлов, Филипп Киркоров / В кругу друзей (Лучшие дуэты) (18)
          Стас Михайлов, Челси / В кругу друзей (Лучшие дуэты) (19)
--------------------------------------------------------------------------------
DR         Пики         RMS           Продолжительность трека
--------------------------------------------------------------------------------
DR5       -0.42 дБ    -6.27 дБ      3:30 04-Берега
DR7        0.00 дБ    -8.76 дБ      5:33 18-Всё для тебя (Live)
DR9       -0.76 дБ   -11.75 дБ      3:19 16-Отпускаю (Live)
DR9       -0.98 дБ   -12.92 дБ      3:41 11-Птицей раненой (Live)
DR9       -1.88 дБ   -12.31 дБ      3:16 12-Две души (Live)
DR8       -0.82 дБ   -11.88 дБ      4:26 09-Холодно (Live)
DR6       -3.32 дБ   -10.59 дБ      3:43 10-Всё для тебя (Live)
DR8       -1.33 дБ   -10.70 дБ      4:00 01-Спящая красавица
DR6       -0.10 дБ    -6.97 дБ      3:38 05-Летим
DR9       -0.32 дБ   -10.11 дБ      3:16 14-Поделим небо
DR9       -0.84 дБ   -12.64 дБ      4:42 13-Уходите (Live)
DR6       -0.25 дБ    -7.64 дБ      3:33 03-Время прощаться
DR10      -1.39 дБ   -13.33 дБ      3:58 07-Странник (Live)
DR9       -1.50 дБ   -13.12 дБ      5:07 15-Небеса (Live)
DR9       -0.37 дБ   -11.19 дБ      3:20 17-Мама (Live)
DR6       -0.44 дБ    -7.48 дБ      3:36 02-Отпусти
DR8       -1.93 дБ   -13.22 дБ      4:16 08-Душа (Live)
DR8       -1.59 дБ   -12.56 дБ      4:00 06-Королева вдохновения (Live)
DR9       -1.26 дБ   -12.55 дБ      3:45 19-Если бы не ты (Live)
--------------------------------------------------------------------------------
Количество треков: 19
Реальные значения DR: DR8
Частота:   44100 Гц
Каналов:   2
Разрядность:   16
Битрейт:   975 кбит/с
Кодек:   FLAC
================================================================================
Код: Выделить всё
AUDIOCHECKER v2.0 beta (build 457) - by Dester - opdester@freemail.hu
~~~~~~~~~~~~~~~~~~~~~~~~~~~~~~~~~~
-=== DO NOT EDIT THIS FILE! ===-
Path: ...\В кругу друзей (Лучшие дуэты) (Album)
01 -=- 01 Спящая красавица.flac -=- MPEG (100%)
02 -=- 02 Отпусти.flac -=- CDDA (100%)
03 -=- 03 Время прощаться.flac -=- CDDA (100%)
04 -=- 04 Берега.flac -=- CDDA (100%)
05 -=- 05 Летим.flac -=- CDDA (100%)
06 -=- 06 Королева вдохновения (Live).flac -=- CDDA (100%)
07 -=- 07 Странник (Live).flac -=- CDDA (100%)
08 -=- 08 Душа (Live).flac -=- CDDA (99%)
09 -=- 09 Холодно (Live).flac -=- CDDA (100%)
10 -=- 10 Всё для тебя (Live).flac -=- CDDA (99%)
11 -=- 11 Птицей раненой (Live).flac -=- CDDA (100%)
12 -=- 12 Две души (Live).flac -=- CDDA (100%)
13 -=- 13 Уходите (Live).flac -=- CDDA (100%)
14 -=- 14 Поделим небо.flac -=- MPEG (95%)
15 -=- 15 Небеса (Live).flac -=- CDDA (99%)
16 -=- 16 Отпускаю (Live).flac -=- CDDA (100%)
17 -=- 17 Мама (Live).flac -=- CDDA (100%)
18 -=- 18 Всё для тебя (Live).flac -=- CDDA (100%)
19 -=- 19 Если бы не ты (Live).flac -=- CDDA (100%)
Summary 89,58% CDDA
99751636
#77701. Самый твой лучший день
02. Перепутаю даты
03. Метель
04. Комнаты
05. Журавли летят в Китай
06. От сердца к сердцу
07. Держи меня
08. Вор
09. Кто, если не ты
10. Я и ты
11. Белым снегом
12. Лучшая на свете
Код: Выделить всё
foobar2000 1.3.19 / Замер динамического диапазона (DR) 1.1.1
Дата отчёта:  2020-06-07 20:26:23
--------------------------------------------------------------------------------
Анализ:   Стас Михайлов / Лучший день
--------------------------------------------------------------------------------
DR         Пики         RMS           Продолжительность трека
--------------------------------------------------------------------------------
DR4       -2.25 дБ    -7.65 дБ      3:41 01-Самый твой лучший день
DR3       -3.40 дБ    -6.80 дБ      3:37 02-Перепутаю даты
DR4       -2.25 дБ    -7.92 дБ      3:18 03-Метель
DR3       -3.60 дБ    -7.85 дБ      3:51 04-Комнаты
DR4       -2.25 дБ    -7.42 дБ      3:36 05-Журавли летят в Китай
DR6       -0.05 дБ    -7.63 дБ      3:05 06-От сердца к сердцу
DR6       -0.06 дБ    -7.05 дБ      3:39 07-Держи меня
DR6       -0.11 дБ    -7.37 дБ      3:32 08-Вор
DR6        0.00 дБ    -7.67 дБ      3:40 09-Кто, если не ты
DR5       -0.15 дБ    -6.52 дБ      3:27 10-Я и ты
DR6       -0.11 дБ    -7.72 дБ      3:52 11-Белым снегом
DR5       -0.12 дБ    -6.86 дБ      4:44 12-Лучшая на свете
--------------------------------------------------------------------------------
Количество треков: 12
Реальные значения DR: DR5
Частота:   44100 Гц
Каналов:   2
Разрядность:   16
Битрейт:   1025 кбит/с
Кодек:   FLAC
Код: Выделить всё
AUDIOCHECKER v2.0 beta (build 457) - by Dester - opdester@freemail.hu
~~~~~~~~~~~~~~~~~~~~~~~~~~~~~~~~~~
-=== DO NOT EDIT THIS FILE! ===-
Path: ...\Лучший день (Album)
01 -=- 01 Самый твой лучший день.flac -=- CDDA (100%)
02 -=- 02 Перепутаю даты.flac -=- CDDA (100%)
03 -=- 03 Метель.flac -=- CDDA (100%)
04 -=- 04 Комнаты.flac -=- CDDA (99%)
05 -=- 05 Журавли летят в Китай.flac -=- CDDA (100%)
06 -=- 06 От сердца к сердцу.flac -=- CDDA (100%)
07 -=- 07 Держи меня.flac -=- CDDA (100%)
08 -=- 08 Вор.flac -=- MPEG (95%)
09 -=- 09 Кто если не ты.flac -=- CDDA (100%)
10 -=- 10 Я и ты.flac -=- CDDA (100%)
11 -=- 11 Белым снегом.flac -=- CDDA (99%)
12 -=- 12 Лучшая на свете.flac -=- CDDA (100%)
Summary 91,92% CDDA
118343204
#77701. Мы бежим от себя
Код: Выделить всё
foobar2000 1.3.19 / Замер динамического диапазона (DR) 1.1.1
Дата отчёта:  2020-06-07 20:27:10
--------------------------------------------------------------------------------
Статистика для:  01-Мы бежим от себя
Количество сэмплов: 11463318
Продолжительность: 4:20
--------------------------------------------------------------------------------
           Левый             Правый
Пики:               -0.30 дБ     ---     -0.30 дБ
Средний RMS:              -8.72 дБ     ---     -8.75 дБ
DR канала:               6.77 дБ     ---      6.88 дБ
--------------------------------------------------------------------------------
Реальные значения DR: DR7
Частота:   44100 Гц
Каналов:   2
Разрядность:   16
Битрейт:   1072 кбит/с
Кодек:   FLAC
Код: Выделить всё
AUDIOCHECKER v2.0 beta (build 457) - by Dester - opdester@freemail.hu
~~~~~~~~~~~~~~~~~~~~~~~~~~~~~~~~~~
-=== DO NOT EDIT THIS FILE! ===-
Path: ...\Мы бежим от себя (Single)
001 -=- 01 Мы бежим от себя.flac -=- CDDA (100%)
138987124
#77701. Жди меня
01. Этот долгий день
02. Давай разлуке запретим
03. Джокер
04. Озноб души
05. Понимаю, ты устала
06. Нас обрекла любовь на счастье
07. Сон, где мы вдвоём
08. Мальчик-задира
Код: Выделить всё
foobar2000 1.3.19 / Замер динамического диапазона (DR) 1.1.1
Дата отчёта:  2020-06-07 20:29:27
--------------------------------------------------------------------------------
Анализ:   Стас Михайлов, Тамара Гвердцители / Этот долгий день (Песни поэта Михаила Гуцериева) (1)
          Стас Михайлов / Этот долгий день (Песни поэта Михаила Гуцериева) (2-8)
--------------------------------------------------------------------------------
DR         Пики         RMS           Продолжительность трека
--------------------------------------------------------------------------------
DR4       -0.10 дБ    -5.93 дБ      3:36 02-Давай разлуке запретим
DR6       -0.31 дБ    -8.43 дБ      3:42 01-Этот долгий день
DR5       -6.12 дБ   -13.01 дБ      4:02 03-Джокер
DR5        0.00 дБ    -6.88 дБ      3:31 04-Озноб души
DR9        0.00 дБ   -10.74 дБ      3:49 05-Понимаю, ты устала
DR4       -0.05 дБ    -6.01 дБ      3:29 06-Нас обрекла любовь на счастье
DR6       -0.10 дБ    -7.37 дБ      3:46 07-Сон, где мы вдвоём
DR10       0.00 дБ   -11.90 дБ      4:23 08-Мальчик-задира
--------------------------------------------------------------------------------
Количество треков: 8
Реальные значения DR: DR6
Частота:   44100 Гц
Каналов:   2
Разрядность:   16
Битрейт:   901 кбит/с
Кодек:   FLAC
Код: Выделить всё
AUDIOCHECKER v2.0 beta (build 457) - by Dester - opdester@freemail.hu
~~~~~~~~~~~~~~~~~~~~~~~~~~~~~~~~~~
-=== DO NOT EDIT THIS FILE! ===-
Path: ...\Этот долгий день (Песни поэта Михаила Гуцериева) (Album)
001 -=- 01 Этот долгий день.flac -=- CDDA (100%)
002 -=- 02 Давай разлуке запретим.flac -=- CDDA (100%)
003 -=- 03 Джокер.flac -=- CDDA (100%)
004 -=- 04 Озноб души.flac -=- CDDA (100%)
005 -=- 05 Понимаю ты устала.flac -=- CDDA (100%)
006 -=- 06 Нас обрекла любовь на счастье.flac -=- CDDA (100%)
007 -=- 07 Сон где мы вдвоём.flac -=- CDDA (100%)
008 -=- 08 Мальчик-задира.flac -=- CDDA (99%)
Summary 99,88% CDDA
194765652
#77701. #СпасибоДокторам (Instrumental)
Код: Выделить всё
foobar2000 1.3.19 / Замер динамического диапазона (DR) 1.1.1
Дата отчёта:  2020-06-07 20:31:27
--------------------------------------------------------------------------------
Статистика для:  01-#СпасибоДокторам (Instrumental)
Количество сэмплов: 10218248
Продолжительность: 3:52
--------------------------------------------------------------------------------
           Левый             Правый
Пики:               -0.01 дБ     ---     -0.01 дБ
Средний RMS:             -10.60 дБ     ---    -10.39 дБ
DR канала:               6.59 дБ     ---      6.85 дБ
--------------------------------------------------------------------------------
Реальные значения DR: DR7
Частота:   44100 Гц
Каналов:   2
Разрядность:   16
Битрейт:   707 кбит/с
Кодек:   FLAC
Код: Выделить всё
AUDIOCHECKER v2.0 beta (build 457) - by Dester - opdester@freemail.hu
~~~~~~~~~~~~~~~~~~~~~~~~~~~~~~~~~~
-=== DO NOT EDIT THIS FILE! ===-
Path: ...\#СпасибоДокторам (Instrumental) (Single)
01 -=- 01 #СПАСИБОДОКТОРАМ (Instrumental).flac -=- CDDA (100%)
133573268
#77701. #СпасибоДокторам
Код: Выделить всё
foobar2000 1.3.19 / Замер динамического диапазона (DR) 1.1.1
Дата отчёта:  2020-06-07 20:32:30
--------------------------------------------------------------------------------
Статистика для:  01-#СпасибоДокторам
Количество сэмплов: 10239391
Продолжительность: 3:52
--------------------------------------------------------------------------------
           Левый             Правый
Пики:               -0.01 дБ     ---     -0.01 дБ
Средний RMS:              -8.91 дБ     ---     -8.71 дБ
DR канала:               5.42 дБ     ---      5.42 дБ
--------------------------------------------------------------------------------
Реальные значения DR: DR5
Частота:   44100 Гц
Каналов:   2
Разрядность:   16
Битрейт:   849 кбит/с
Кодек:   FLAC
Код: Выделить всё
AUDIOCHECKER v2.0 beta (build 457) - by Dester - opdester@freemail.hu
~~~~~~~~~~~~~~~~~~~~~~~~~~~~~~~~~~
-=== DO NOT EDIT THIS FILE! ===-
Path: ...\#СпасибоДокторам (Single)
01 -=- 01 #СПАСИБОДОКТОРАМ.flac -=- CDDA (100%)
221275700
#77701. Возьми мою руку
Код: Выделить всё
foobar2000 1.3.19 / Замер динамического диапазона (DR) 1.1.1
Дата отчёта:  2020-06-08 18:07:46
--------------------------------------------------------------------------------
Статистика для:  01-Возьми мою руку
Количество сэмплов: 12051089
Продолжительность: 4:33
--------------------------------------------------------------------------------
           Левый             Правый
Пики:               -0.30 дБ     ---     -0.30 дБ
Средний RMS:              -6.49 дБ     ---     -6.38 дБ
DR канала:               4.90 дБ     ---      4.81 дБ
--------------------------------------------------------------------------------
Реальные значения DR: DR5
Частота:   44100 Гц
Каналов:   2
Разрядность:   16
Битрейт:   999 кбит/с
Кодек:   FLAC
Код: Выделить всё
AUDIOCHECKER v2.0 beta (build 457) - by Dester - opdester@freemail.hu
~~~~~~~~~~~~~~~~~~~~~~~~~~~~~~~~~~
-=== DO NOT EDIT THIS FILE! ===-
Path: ...\2020 - Возьми мою руку (Single)
1 -=- 01 Возьми мои руки.flac -=- CDDA (100%)
253280708
#77701. Не отпускай
02. Я тебя люблю
03. Шестое чувство
04. Доченька
05. Любовь-призрак (feat Жасмин)
06. Я в твоей голове
07. Барракуда
08. Свадьба (Без подписей) (feat Слава)
09. Ты моя девчонка
10. Я буду очень тебя беречь!
11. All Inclusive
Код: Выделить всё
foobar2000 1.3.19 / Замер динамического диапазона (DR) 1.1.1
Дата отчёта:  2020-10-31 05:41:56
--------------------------------------------------------------------------------
Анализ:   Стас Михайлов, Жасмин / Шестое чувство (1)
          Стас Михайлов, Слава / Шестое чувство (2)
          Стас Михайлов / Шестое чувство (3-11)
--------------------------------------------------------------------------------
DR         Пики         RMS           Продолжительность трека
--------------------------------------------------------------------------------
DR11       0.00 дБ   -12.22 дБ      3:50 05-Любовь-призрак
DR11      -0.02 дБ   -12.37 дБ      3:26 08-Свадьба (Без подписей)
DR11      -0.12 дБ   -13.09 дБ      3:38 01-Не отпускай
DR11      -0.39 дБ   -14.22 дБ      4:18 02-Я тебя люблю
DR11      -0.29 дБ   -13.18 дБ      2:39 03-Шестое чувство
DR10       0.00 дБ   -13.36 дБ      4:09 04-Доченька
DR11       0.00 дБ   -12.27 дБ      3:04 06-Я в твоей голове
DR10       0.00 дБ   -11.82 дБ      3:16 07-Барракуда
DR10      -0.17 дБ   -12.21 дБ      3:40 09-Ты моя девчонка
DR11      -0.30 дБ   -12.25 дБ      3:28 10-Я буду очень тебя беречь!
DR10      -0.04 дБ   -11.32 дБ      4:14 11-All Inclusive
--------------------------------------------------------------------------------
Количество треков: 11
Реальные значения DR: DR11
Частота:   44100 Гц
Каналов:   2
Разрядность:   16
Битрейт:   961 кбит/с
Кодек:   FLAC
Код: Выделить всё
AUDIOCHECKER v2.0 beta (build 457) - by Dester - opdester@freemail.hu
~~~~~~~~~~~~~~~~~~~~~~~~~~~~~~~~~~
-=== DO NOT EDIT THIS FILE! ===-
Path: ...\2020 - Шестое чувство
01 -=- 01 Не отпускай.flac -=- CDDA (100%)
02 -=- 02 Я тебя люблю.flac -=- CDDA (100%)
03 -=- 03 Шестое чувство.flac -=- CDDA (100%)
04 -=- 04 Доченька.flac -=- CDDA (100%)
05 -=- 05 Любовь-призрак.flac -=- CDDA (100%)
06 -=- 06 Я в твоей голове.flac -=- CDDA (100%)
07 -=- 07 Барракуда.flac -=- MPEG (79%)
08 -=- 08 Свадьба (Без подписей).flac -=- CDDA (99%)
09 -=- 09 Ты моя девчонка.flac -=- CDDA (100%)
10 -=- 10 Я буду очень тебя беречь!.flac -=- CDDA (100%)
11 -=- 11 All Inclusive.flac -=- CDDA (100%)
Summary 92,73% CDDA
157293060
7Max7
Аватара пользователя
 
Раздал: 491.04 ГБ
Скачал: 3 ГБ
Ратио: 163.468
Сообщения: 413
Зарегистрирован: 14 фев 2014, 18:28
  • Торрент
Автор: 7Max7 Хэш: ---
Добавлен: 29 ноя 2020, 16:40 Приватный: Нет (DHT включён)
Статус: Проверен
Размер: 3.94 ГБ (4 230 640 503 байт)
Изменил:
---
Скачали: 0 (Раздающих: 0%)
Причина:
---
Здоровье: 100%
Сидеров: 1 Личеров: 0
Скорость раздачи: 0 байт/сек Скорость скачивания: 0 байт/сек
Последний сидер: 5 дней 2 часа 21 минуту 18 секунд назад Последний личер: Нет
Для скачивания торрента необходимо зарегистрироваться или войти на трекер.

Форум Статистика

Кто сейчас на конференции

Сейчас этот форум просматривают: нет зарегистрированных пользователей и гости: 6

  • Похожие торренты
    Ответы
    Просмотры
    Последнее сообщение

Настройки

Вернуться в Музыка / Мультимедиа

cron
Ресурс не предоставляет электронные версии произведений, а занимается лишь коллекционированием и каталогизацией ссылок, присылаемых и публикуемых на форуме нашими читателями. Если вы являетесь правообладателем какого-либо представленного материала и не желаете чтобы ссылка на него находилась в нашем каталоге, свяжитесь с нами и мы незамедлительно удалим её. Файлы для обмена на трекере предоставлены пользователями сайта, и администрация не несёт ответственности за их содержание. Просьба не заливать файлы, защищенные авторскими правами, а также файлы нелегального содержания!
tracker_cron