Модераторы: K15, Младшие модераторы, Модераторы

Бока (Борис Давидян) - Коллекция (9 релизов) (1998-2018) (Шансон) FLAC (tracks), lossless

Сообщение Zina » 12 апр 2020, 21:30

Бока
(Борис Давидян)




#777

Жанр: Шансон
Носитель: WEB
Год издания: 1998-2018
Страна исполнителя (группы): United States
Аудиокодек: FLAC (*.flac)
Тип рипа: tracks
Продолжительность: 08:39:03
Источник: собственная покупка
Наличие сканов в содержимом раздачи: нет

#77701. Для меня
02. 48 Лет
03. По Москве
04. Еврейские глаза
05. Кровь
06. Сынок
07. Тимур
08. Колдун
09. Вино в бокале
10. Лагерь
11. Ты не плачь
12. Зверь
13. Красная шапочка
Код: Выделить всё
foobar2000 1.3.19 / Замер динамического диапазона (DR) 1.1.1
Дата отчёта:  2020-03-17 19:06:54
--------------------------------------------------------------------------------
Анализ:   Бока / Привет из Америки
--------------------------------------------------------------------------------
DR         Пики         RMS           Продолжительность трека
--------------------------------------------------------------------------------
DR12      -0.24 дБ   -13.86 дБ      5:06 01-Для меня
DR13       0.00 дБ   -15.68 дБ      6:37 02-48 Лет
DR11      -0.40 дБ   -14.86 дБ      4:19 03-По Москве
DR10      -0.32 дБ   -12.40 дБ      5:21 04-Еврейские глаза
DR11      -0.37 дБ   -14.22 дБ      5:15 05-Кровь
DR10      -0.29 дБ   -12.96 дБ      3:51 06-Сынок
DR12      -0.36 дБ   -13.28 дБ      5:11 07-Тимур
DR10      -0.38 дБ   -12.44 дБ      5:06 08-Колдун
DR11      -0.43 дБ   -14.20 дБ      5:54 09-Вино в бокале
DR12       0.00 дБ   -14.05 дБ      4:15 10-Лагерь
DR12      -0.39 дБ   -14.28 дБ      3:53 11-Ты не плачь
DR11      -0.44 дБ   -13.87 дБ      6:04 12-Зверь
DR12      -0.37 дБ   -13.34 дБ      5:03 13-Красная шапочка
--------------------------------------------------------------------------------
Количество треков: 13
Реальные значения DR: DR11
Частота:   44100 Гц
Каналов:   2
Разрядность:   16
Битрейт:   1020 кбит/с
Кодек:   FLAC
Код: Выделить всё
AUDIOCHECKER v2.0 beta (build 457) - by Dester - opdester@freemail.hu
~~~~~~~~~~~~~~~~~~~~~~~~~~~~~~~~~~
-=== DO NOT EDIT THIS FILE! ===-
Path: ...\Привет из Америки
001 -=- 01 Для меня.flac -=- CDDA (100%)
002 -=- 02 48 Лет.flac -=- CDDA (100%)
003 -=- 03 По Москве.flac -=- CDDA (100%)
004 -=- 04 Еврейские глаза.flac -=- CDDA (100%)
005 -=- 05 Кровь.flac -=- CDDA (100%)
006 -=- 06 Сынок.flac -=- CDDA (100%)
007 -=- 07 Тимур.flac -=- CDDA (100%)
008 -=- 08 Колдун.flac -=- CDDA (100%)
009 -=- 09 Вино в бокале.flac -=- CDDA (100%)
010 -=- 10 Лагерь.flac -=- CDDA (100%)
011 -=- 11 Ты не плачь.flac -=- CDDA (100%)
012 -=- 12 Зверь.flac -=- CDDA (100%)
013 -=- 13 Красная шапочка.flac -=- CDDA (100%)
Summary 100,00% CDDA
176959028
#77701. Фергана
02. Мой Отец
03. Лейла
04. Кавказ
05. Доля Малолетки
06. Караван
07. Тук-Тук
08. Настальгия
09. Фраер
10. Ду-Ду
11. Лагеря
12. Пляж
Код: Выделить всё
foobar2000 1.3.19 / Замер динамического диапазона (DR) 1.1.1
Дата отчёта:  2020-03-17 19:08:21
--------------------------------------------------------------------------------
Анализ:   Бока / Мой отец
--------------------------------------------------------------------------------
DR         Пики         RMS           Продолжительность трека
--------------------------------------------------------------------------------
DR7       -1.94 дБ   -10.04 дБ      5:18 01-Фергана
DR6       -1.94 дБ   -10.12 дБ      7:24 02-Мой Отец
DR6       -1.94 дБ    -9.07 дБ      4:29 03-Лейла
DR6       -1.94 дБ    -9.19 дБ      4:08 04-Кавказ
DR6       -1.94 дБ    -8.84 дБ      5:55 05-Доля Малолетки
DR7       -1.94 дБ   -10.41 дБ      5:29 06-Караван
DR6       -1.94 дБ    -9.22 дБ      5:10 07-Тук-Тук
DR7       -1.94 дБ   -10.91 дБ      5:11 08-Настальгия
DR5       -1.94 дБ    -8.13 дБ      4:11 09-Фраер
DR6       -1.94 дБ    -9.44 дБ      5:46 10-Ду-Ду
DR6       -1.94 дБ    -9.60 дБ      3:54 11-Лагеря
DR5       -1.94 дБ    -8.52 дБ      5:08 12-Пляж
--------------------------------------------------------------------------------
Количество треков: 12
Реальные значения DR: DR6
Частота:   44100 Гц
Каналов:   2
Разрядность:   16
Битрейт:   998 кбит/с
Кодек:   FLAC
Код: Выделить всё
AUDIOCHECKER v2.0 beta (build 457) - by Dester - opdester@freemail.hu
~~~~~~~~~~~~~~~~~~~~~~~~~~~~~~~~~~
-=== DO NOT EDIT THIS FILE! ===-
Path: ...\Мой отец (Album)
01 -=- 01 Фергана.flac -=- CDDA (100%)
02 -=- 02 Мой Отец.flac -=- CDDA (100%)
03 -=- 03 Лейла.flac -=- CDDA (100%)
04 -=- 04 Кавказ.flac -=- CDDA (100%)
05 -=- 05 Доля Малолетки.flac -=- CDDA (100%)
06 -=- 06 Караван.flac -=- CDDA (100%)
07 -=- 07 Тук-Тук.flac -=- CDDA (100%)
08 -=- 08 Настальгия.flac -=- CDDA (100%)
09 -=- 09 Фраер.flac -=- CDDA (100%)
10 -=- 10 Ду-Ду.flac -=- CDDA (100%)
11 -=- 11 Лагеря.flac -=- CDDA (100%)
12 -=- 12 Пляж.flac -=- CDDA (100%)
Summary 100,00% CDDA
130242228
#77701. Обида
02. Жить и любить
03. Очень-очень
04. Мама
05. Красавица
06. Разлука
07. Шиповник
08. Моя вина
09. Водочка
10. Не зови
Код: Выделить всё
foobar2000 1.3.19 / Замер динамического диапазона (DR) 1.1.1
Дата отчёта:  2020-03-17 19:09:34
--------------------------------------------------------------------------------
Анализ:   Бока / Жить и любить
--------------------------------------------------------------------------------
DR         Пики         RMS           Продолжительность трека
--------------------------------------------------------------------------------
DR7        0.00 дБ    -7.97 дБ      4:11 01-Обида
DR9        0.00 дБ   -10.35 дБ      4:17 02-Жить и любить
DR6        0.00 дБ    -7.13 дБ      5:32 03-Очень-очень
DR8        0.00 дБ    -9.66 дБ      4:14 04-Мама
DR8        0.00 дБ    -8.43 дБ      3:49 05-Красавица
DR8        0.00 дБ    -8.64 дБ      5:41 06-Разлука
DR7        0.00 дБ    -8.14 дБ      3:30 07-Шиповник
DR8        0.00 дБ    -8.77 дБ      3:30 08-Моя вина
DR7        0.00 дБ    -7.66 дБ      4:38 09-Водочка
DR7        0.00 дБ    -7.98 дБ      4:12 10-Не зови
--------------------------------------------------------------------------------
Количество треков: 10
Реальные значения DR: DR7
Частота:   44100 Гц
Каналов:   2
Разрядность:   16
Битрейт:   996 кбит/с
Кодек:   FLAC
Код: Выделить всё
AUDIOCHECKER v2.0 beta (build 457) - by Dester - opdester@freemail.hu
~~~~~~~~~~~~~~~~~~~~~~~~~~~~~~~~~~
-=== DO NOT EDIT THIS FILE! ===-
Path: ...\Жить и любить
001 -=- 01 Обида.flac -=- CDDA (62%)
002 -=- 02 Жить и любить.flac -=- CDDA (100%)
003 -=- 03 Очень-очень.flac -=- MPEG (73%)
004 -=- 04 Мама.flac -=- CDDA (100%)
005 -=- 05 Красавица.flac -=- CDDA (43%)
006 -=- 06 Разлука.flac -=- CDDA (87%)
007 -=- 07 Шиповник.flac -=- CDDA (43%)
008 -=- 08 Моя вина.flac -=- CDDA (94%)
009 -=- 09 Водочка.flac -=- CDDA (54%)
010 -=- 10 Не зови.flac -=- CDDA (54%)
Summary 66,40% CDDA
227863236
#77701. Ах эти женщины
02. Афина
03. Если Женщина Изменит
04. Женушка
05. Любимая
06. Маленькая Дочь
07. Полюби Меня
08. Рая, Рая
09. Рыжая
10. Надя
11. Ты Любовь Моя Первая / Первая любовь
12. Дорогая, Ты, Любимая Моя
13. Я Жду Тебя
14. Ты всего лишь глазки отворила
15. Шут И Королева
Код: Выделить всё
foobar2000 1.3.19 / Замер динамического диапазона (DR) 1.1.1
Дата отчёта:  2020-03-17 19:10:39
--------------------------------------------------------------------------------
Анализ:   Бока / Ах, эти женщины!
--------------------------------------------------------------------------------
DR         Пики         RMS           Продолжительность трека
--------------------------------------------------------------------------------
DR11       0.00 дБ   -12.84 дБ      2:57 01-Ах эти женщины
DR10      -0.02 дБ   -12.09 дБ      2:23 02-Афина
DR10      -4.44 дБ   -16.17 дБ      3:52 03-Если Женщина Изменит
DR10       0.00 дБ   -10.69 дБ      4:24 04-Женушка
DR9        0.00 дБ   -11.02 дБ      4:45 05-Любимая
DR10      -0.04 дБ   -12.81 дБ      2:12 06-Маленькая Дочь
DR10       0.00 дБ   -11.32 дБ      4:24 07-Полюби Меня
DR11      -0.02 дБ   -12.79 дБ      3:20 08-Рая, Рая
DR12       0.00 дБ   -13.25 дБ      5:58 09-Рыжая
DR13       0.00 дБ   -13.96 дБ      2:05 10-Надя
DR7        0.00 дБ    -8.76 дБ      3:23 11-Ты Любовь Моя Первая / Первая любовь
DR9       -2.20 дБ   -13.01 дБ      2:11 12-Дорогая, Ты, Любимая Моя
DR8        0.00 дБ    -9.26 дБ      2:25 13-Я Жду Тебя
DR11      -0.21 дБ   -13.06 дБ      3:31 14-Ты всего лишь глазки отворила
DR11      -1.12 дБ   -12.98 дБ      3:54 15-Шут И Королева
--------------------------------------------------------------------------------
Количество треков: 15
Реальные значения DR: DR10
Частота:   44100 Гц
Каналов:   2
Разрядность:   16
Битрейт:   533 кбит/с
Кодек:   FLAC
Код: Выделить всё
AUDIOCHECKER v2.0 beta (build 457) - by Dester - opdester@freemail.hu
~~~~~~~~~~~~~~~~~~~~~~~~~~~~~~~~~~
-=== DO NOT EDIT THIS FILE! ===-
Path: ...\Ах, эти женщины!
001 -=- 01 Ах эти женщины.flac -=- CDDA (100%)
002 -=- 02 Афина.flac -=- CDDA (100%)
003 -=- 03 Если Женщина Изменит.flac -=- CDDA (100%)
004 -=- 04 Женушка.flac -=- CDDA (76%)
005 -=- 05 Любимая.flac -=- CDDA (100%)
006 -=- 06 Маленькая Дочь.flac -=- CDDA (100%)
007 -=- 07 Полюби Меня.flac -=- CDDA (99%)
008 -=- 08 Рая, Рая.flac -=- CDDA (100%)
009 -=- 09 Рыжая.flac -=- CDDA (100%)
010 -=- 10 Надя.flac -=- CDDA (99%)
011 -=- 11 Ты Любовь Моя Первая - Первая любовь.flac -=- CDDA (100%)
012 -=- 12 Дорогая, Ты, Любимая Моя.flac -=- CDDA (100%)
013 -=- 13 Я Жду Тебя.flac -=- CDDA (99%)
014 -=- 14 Ты всего лишь глазки отворила.flac -=- CDDA (100%)
015 -=- 15 Шут И Королева.flac -=- CDDA (100%)
Summary 98,20% CDDA
36453060
#77701. Безумно я люблю
02. Дом Родной
03. Досвидание
04. Дым От Сигареты
05. Ёска
06. За Друзей
07. За меня мамаша отольет все слезы
08. Какие черные глаза у ней
09. Звенит звонок, пора расстаться
10. Ландыши
11. Мама Милая Мама
12. Наверное Кажется
13. Наши расставанья вспоминаю я с тоской
14. Ностальгия
15. Ну что же ты грустишь
16. Где ты юность моя
17. Я пьян
18. Хлопнем хлопнем
Код: Выделить всё
foobar2000 1.3.19 / Замер динамического диапазона (DR) 1.1.1
Дата отчёта:  2020-03-17 19:11:51
--------------------------------------------------------------------------------
Анализ:   Бока / Где ты, моя юность
--------------------------------------------------------------------------------
DR         Пики         RMS           Продолжительность трека
--------------------------------------------------------------------------------
DR9        0.00 дБ   -10.05 дБ      4:16 01-Безумно я люблю
DR11       0.00 дБ   -12.46 дБ      4:58 02-Дом Родной
DR8        0.00 дБ    -9.82 дБ      5:42 03-Досвидание
DR10       0.00 дБ   -12.43 дБ      4:57 04-Дым От Сигареты
DR10       0.00 дБ   -11.32 дБ      6:01 05-Ёска
DR9       -0.06 дБ   -11.36 дБ      3:07 06-За Друзей
DR10      -1.15 дБ   -13.43 дБ      4:09 07-За меня мамаша отольет все слезы
DR10      -0.02 дБ   -12.09 дБ      2:23 08-Какие черные глаза у ней
DR6        0.00 дБ    -7.13 дБ      3:06 09-Звенит звонок, пора расстаться
DR11      -1.01 дБ   -14.17 дБ      3:49 10-Ландыши
DR13       0.00 дБ   -15.76 дБ      4:46 11-Мама Милая Мама
DR10       0.00 дБ   -13.00 дБ      3:51 12-Наверное Кажется
DR13      -0.24 дБ   -16.57 дБ      7:02 13-Наши расставанья вспоминаю я с тоской
DR9        0.00 дБ   -10.71 дБ      5:12 14-Ностальгия
DR9       -1.07 дБ   -13.83 дБ      1:53 15-Ну что же ты грустишь
DR9        0.00 дБ    -9.85 дБ      4:40 16-Где ты юность моя
DR11       0.00 дБ   -12.79 дБ      4:24 17-Я пьян
DR8        0.00 дБ    -8.76 дБ      3:48 18-Хлопнем хлопнем
--------------------------------------------------------------------------------
Количество треков: 18
Реальные значения DR: DR10
Частота:   44100 Гц
Каналов:   2
Разрядность:   16
Битрейт:   1030 кбит/с
Кодек:   FLAC
Код: Выделить всё
AUDIOCHECKER v2.0 beta (build 457) - by Dester - opdester@freemail.hu
~~~~~~~~~~~~~~~~~~~~~~~~~~~~~~~~~~
-=== DO NOT EDIT THIS FILE! ===-
Path: ...\Где ты, моя юность
001 -=- 01 Безумно я люблю.flac -=- CDDA (100%)
002 -=- 02 Дом Родной.flac -=- CDDA (100%)
003 -=- 03 Досвидание.flac -=- CDDA (100%)
004 -=- 04 Дым От Сигареты.flac -=- CDDA (100%)
005 -=- 05 Ёска.flac -=- CDDA (100%)
006 -=- 06 За Друзей.flac -=- CDDA (100%)
007 -=- 07 За меня мамаша отольет все слезы.flac -=- CDDA (100%)
008 -=- 08 Какие черные глаза у ней.flac -=- CDDA (100%)
009 -=- 09 Звенит звонок, пора расстаться.flac -=- CDDA (100%)
010 -=- 10 Ландыши.flac -=- CDDA (100%)
011 -=- 11 Мама Милая Мама.flac -=- CDDA (100%)
012 -=- 12 Наверное Кажется.flac -=- CDDA (99%)
013 -=- 13 Наши расставанья вспоминаю я с тоской.flac -=- CDDA (100%)
014 -=- 14 Ностальгия.flac -=- CDDA (100%)
015 -=- 15 Ну что же ты грустишь.flac -=- CDDA (100%)
016 -=- 16 Где ты юность моя.flac -=- CDDA (100%)
017 -=- 17 Я пьян.flac -=- CDDA (100%)
018 -=- 18 Хлопнем хлопнем.flac -=- CDDA (100%)
Summary 99,94% CDDA
51351364
#77701. Ветер осенний лист падал...
02. Головушка седая
03. Зашла на склад
04. Лопаты
05. Осенняя раса
06. Под небом – только у любимой
07. Пропажа
08. Сны
09. Уже полночь
10. Шум по коридору
11. Юрик Варданян
Код: Выделить всё
foobar2000 1.3.19 / Замер динамического диапазона (DR) 1.1.1
Дата отчёта:  2020-03-17 19:12:51
--------------------------------------------------------------------------------
Анализ:   Бока / Головушка седая
--------------------------------------------------------------------------------
DR         Пики         RMS           Продолжительность трека
--------------------------------------------------------------------------------
DR11      -0.59 дБ   -13.73 дБ      6:03 01-Ветер осенний лист падал...
DR8        0.00 дБ    -9.68 дБ      5:45 02-Головушка седая
DR10       0.00 дБ   -11.18 дБ      2:37 03-Зашла на склад
DR9        0.00 дБ   -10.18 дБ      5:36 04-Лопаты
DR13      -0.20 дБ   -16.03 дБ      3:51 05-Осенняя раса
DR9       -0.01 дБ   -11.79 дБ      7:55 06-Под небом – только у любимой
DR11      -1.67 дБ   -13.83 дБ      5:09 07-Пропажа
DR11       0.00 дБ   -12.39 дБ      5:09 08-Сны
DR10       0.00 дБ   -12.66 дБ      3:25 09-Уже полночь
DR8        0.00 дБ   -10.33 дБ      4:21 10-Шум по коридору
DR8        0.00 дБ    -9.28 дБ      3:57 11-Юрик Варданян
--------------------------------------------------------------------------------
Количество треков: 11
Реальные значения DR: DR10
Частота:   44100 Гц
Каналов:   2
Разрядность:   16
Битрейт:   1010 кбит/с
Кодек:   FLAC
Код: Выделить всё
AUDIOCHECKER v2.0 beta (build 457) - by Dester - opdester@freemail.hu
~~~~~~~~~~~~~~~~~~~~~~~~~~~~~~~~~~
-=== DO NOT EDIT THIS FILE! ===-
Path: ...\Головушка седая
001 -=- 01 Ветер осенний лист падал....flac -=- CDDA (100%)
002 -=- 02 Головушка седая.flac -=- CDDA (100%)
003 -=- 03 Зашла на склад.flac -=- CDDA (87%)
004 -=- 04 Лопаты.flac -=- CDDA (58%)
005 -=- 05 Осенняя раса.flac -=- CDDA (99%)
006 -=- 06 Под небом – только у любимой.flac -=- CDDA (100%)
007 -=- 07 Пропажа.flac -=- CDDA (100%)
008 -=- 08 Сны.flac -=- CDDA (100%)
009 -=- 09 Уже полночь.flac -=- CDDA (100%)
010 -=- 10 Шум по коридору.flac -=- CDDA (100%)
011 -=- 11 Юрик Варданян.flac -=- MPEG (80%)
Summary 87,64% CDDA
89028180
#77701. Вот полночь пробило, и спать мне пора
02. Денюшки
03. Зима
04. Не уходи
05. Папа И Султан
06. Пой Же Танцуй, Черные
07. С добрым утром тетя Хая
08. Соловушка
09. Улица, улица
10. Эмигранты
11. Я иду по тихим улицам
12. Я читаю письмо, что уже пожелтело с годами
13. Осенней порой
Код: Выделить всё
foobar2000 1.3.19 / Замер динамического диапазона (DR) 1.1.1
Дата отчёта:  2020-03-17 19:14:09
--------------------------------------------------------------------------------
Анализ:   Бока / Улица, улица
--------------------------------------------------------------------------------
DR         Пики         RMS           Продолжительность трека
--------------------------------------------------------------------------------
DR9       -0.15 дБ   -11.65 дБ      3:23 01-Вот полночь пробило, и спать мне пора
DR13       0.00 дБ   -15.12 дБ      2:14 02-Денюшки
DR11       0.00 дБ   -13.02 дБ      4:30 03-Зима
DR8       -1.97 дБ   -13.20 дБ      8:55 04-Не уходи
DR10      -0.22 дБ   -11.48 дБ      3:11 05-Папа И Султан
DR10      -0.14 дБ   -12.45 дБ      4:39 06-Пой Же Танцуй, Черные
DR8       -2.30 дБ   -11.26 дБ      4:10 07-С добрым утром тетя Хая
DR11       0.00 дБ   -12.29 дБ      3:38 08-Соловушка
DR11      -0.50 дБ   -16.36 дБ      4:20 09-Улица, улица
DR10      -0.36 дБ   -11.42 дБ      4:19 10-Эмигранты
DR10      -0.02 дБ   -13.20 дБ      4:04 11-Я иду по тихим улицам
DR10      -0.12 дБ   -12.43 дБ      5:36 12-Я читаю письмо, что уже пожелтело с годами
DR11      -0.25 дБ   -14.04 дБ      5:16 13-Осенней порой
--------------------------------------------------------------------------------
Количество треков: 13
Реальные значения DR: DR10
Частота:   44100 Гц
Каналов:   2
Разрядность:   16
Битрейт:   992 кбит/с
Кодек:   FLAC
Код: Выделить всё
AUDIOCHECKER v2.0 beta (build 457) - by Dester - opdester@freemail.hu
~~~~~~~~~~~~~~~~~~~~~~~~~~~~~~~~~~
-=== DO NOT EDIT THIS FILE! ===-
Path: ...\Улица, улица
001 -=- 01 Вот полночь пробило, и спать мне пора.flac -=- CDDA (100%)
002 -=- 02 Денюшки.flac -=- CDDA (99%)
003 -=- 03 Зима.flac -=- CDDA (100%)
004 -=- 04 Не уходи.flac -=- CDDA (100%)
005 -=- 05 Папа И Султан.flac -=- CDDA (100%)
006 -=- 06 Пой Же Танцуй, Черные.flac -=- CDDA (100%)
007 -=- 07 С добрым утром тетя Хая.flac -=- CDDA (100%)
008 -=- 08 Соловушка.flac -=- CDDA (100%)
009 -=- 09 Улица, улица.flac -=- CDDA (100%)
010 -=- 10 Эмигранты.flac -=- CDDA (86%)
011 -=- 11 Я иду по тихим улицам.flac -=- CDDA (100%)
012 -=- 12 Я читаю письмо, что уже пожелтело с годами.flac -=- CDDA (100%)
013 -=- 13 Осенней порой.flac -=- CDDA (100%)
Summary 98,85% CDDA
205624884
#77701. Фергана
02. А вы по камешкам
03. Али-Баба
04. Белочка в лесу одна жила
05. Дождь осенний стучится по крыше
06. Друзья Купите Папиросы
07. Курочка
08. Безумно я люблю
09. Братишка
10. Голубые Глаза
11. Гора Кавказ
12. Скоро- скоро
Код: Выделить всё
foobar2000 1.3.19 / Замер динамического диапазона (DR) 1.1.1
Дата отчёта:  2020-03-17 19:15:02
--------------------------------------------------------------------------------
Анализ:   Бока / Фергана
--------------------------------------------------------------------------------
DR         Пики         RMS           Продолжительность трека
--------------------------------------------------------------------------------
DR10       0.00 дБ   -11.59 дБ      3:02 01-Фергана
DR8       -0.17 дБ   -11.94 дБ      2:56 02-А вы по камешкам
DR10       0.00 дБ   -11.28 дБ      4:01 03-Али-Баба
DR12       0.00 дБ   -14.68 дБ      4:05 04-Белочка в лесу одна жила
DR8       -1.67 дБ   -12.71 дБ      6:09 05-Дождь осенний стучится по крыше
DR9      -15.00 дБ   -25.22 дБ      1:39 06-Друзья Купите Папиросы
DR11       0.00 дБ   -12.20 дБ      3:02 07-Курочка
DR9        0.00 дБ   -10.05 дБ      4:16 08-Безумно я люблю
DR10       0.00 дБ   -11.46 дБ      3:28 09-Братишка
DR7        0.00 дБ    -9.42 дБ      4:07 10-Голубые Глаза
DR11      -0.13 дБ   -14.13 дБ      3:27 11-Гора Кавказ
DR10       0.00 дБ   -10.96 дБ      3:16 12-Скоро- скоро
--------------------------------------------------------------------------------
Количество треков: 12
Реальные значения DR: DR10
Частота:   44100 Гц
Каналов:   2
Разрядность:   16
Битрейт:   902 кбит/с
Кодек:   FLAC
Код: Выделить всё
AUDIOCHECKER v2.0 beta (build 457) - by Dester - opdester@freemail.hu
~~~~~~~~~~~~~~~~~~~~~~~~~~~~~~~~~~
-=== DO NOT EDIT THIS FILE! ===-
Path: ...\Фергана
001 -=- 01 Фергана.flac -=- CDDA (100%)
002 -=- 02 А вы по камешкам.flac -=- CDDA (100%)
003 -=- 03 Али-Баба.flac -=- CDDA (100%)
004 -=- 04 Белочка в лесу одна жила.flac -=- CDDA (100%)
005 -=- 05 Дождь осенний стучится по крыше.flac -=- CDDA (100%)
006 -=- 06 Друзья Купите Папиросы.flac -=- CDDA (100%)
007 -=- 07 Курочка.flac -=- CDDA (100%)
008 -=- 08 Безумно я люблю.flac -=- CDDA (100%)
009 -=- 09 Братишка.flac -=- CDDA (99%)
010 -=- 10 Голубые Глаза.flac -=- CDDA (100%)
011 -=- 11 Гора Кавказ.flac -=- CDDA (100%)
012 -=- 12 Скоро- скоро.flac -=- CDDA (100%)
Summary 99,92% CDDA
192251076
#77701. Беженцы
02. Все Три Года Зоны
03. Если ты идешь по улице
04. Извозчик
05. Однажды Морем Ты Плыла
06. Письмо
07. Про Водку
08. Слышен где-то шум по коридору
09. Старая мама.
10. Цыган
11. Этапы
12. Я пишу последнее послание
13. Мишка
14. Моряк
Код: Выделить всё
foobar2000 1.3.19 / Замер динамического диапазона (DR) 1.1.1
Дата отчёта:  2020-03-17 19:16:02
--------------------------------------------------------------------------------
Анализ:   Бока / Этапы
--------------------------------------------------------------------------------
DR         Пики         RMS           Продолжительность трека
--------------------------------------------------------------------------------
DR11      -2.69 дБ   -16.21 дБ      6:17 01-Беженцы
DR14       0.00 дБ   -15.74 дБ      2:57 02-Все Три Года Зоны
DR11       0.00 дБ   -13.86 дБ      4:36 03-Если ты идешь по улице
DR12       0.00 дБ   -15.37 дБ      3:33 04-Извозчик
DR10      -0.56 дБ   -12.63 дБ      3:50 05-Однажды Морем Ты Плыла
DR7       -1.72 дБ   -11.00 дБ      2:19 06-Письмо
DR8        0.00 дБ    -9.05 дБ      5:55 07-Про Водку
DR8        0.00 дБ   -10.33 дБ      4:21 08-Слышен где-то шум по коридору
DR11      -1.21 дБ   -17.21 дБ      2:43 09-Старая мама.
DR9        0.00 дБ   -11.07 дБ      3:30 10-Цыган
DR10       0.00 дБ   -12.45 дБ      6:14 11-Этапы
DR9        0.00 дБ   -11.09 дБ      2:59 12-Я пишу последнее послание
DR11       0.00 дБ   -12.52 дБ      5:14 13-Мишка
DR12       0.00 дБ   -12.76 дБ      3:47 14-Моряк
--------------------------------------------------------------------------------
Количество треков: 14
Реальные значения DR: DR10
Частота:   44100 Гц
Каналов:   2
Разрядность:   16
Битрейт:   974 кбит/с
Кодек:   FLAC
Код: Выделить всё
AUDIOCHECKER v2.0 beta (build 457) - by Dester - opdester@freemail.hu
~~~~~~~~~~~~~~~~~~~~~~~~~~~~~~~~~~
-=== DO NOT EDIT THIS FILE! ===-
Path: ...\Этапы
001 -=- 01 Беженцы.flac -=- CDDA (100%)
002 -=- 02 Все Три Года Зоны.flac -=- CDDA (100%)
003 -=- 03 Если ты идешь по улице.flac -=- CDDA (100%)
004 -=- 04 Извозчик.flac -=- CDDA (100%)
005 -=- 05 Однажды Морем Ты Плыла.flac -=- CDDA (100%)
006 -=- 06 Письмо.flac -=- CDDA (100%)
007 -=- 07 Про Водку.flac -=- CDDA (99%)
008 -=- 08 Слышен где-то шум по коридору.flac -=- CDDA (100%)
009 -=- 09 Старая мама..flac -=- CDDA (100%)
010 -=- 10 Цыган.flac -=- CDDA (100%)
011 -=- 11 Этапы.flac -=- CDDA (99%)
012 -=- 12 Я пишу последнее послание.flac -=- CDDA (100%)
013 -=- 13 Мишка.flac -=- CDDA (100%)
014 -=- 14 Моряк.flac -=- CDDA (99%)
Summary 99,79% CDDA
17315860
Родился 28 апреля 1949 года в городе Баку, в армянской семье. Отец — Аркадий Вартанович, участник войны, работал мастером на заводе. Мать — Маргарита Артёмовна, биолог. Бока рано потерял маму.
С детства интересовался музыкой, окончил музыкальную школу. Обучался и получил диплом Ташкентского автодорожного института.
В Ереване в 1972 году записал свой первый музыкальный альбом. В советские годы стал очень популярным солистом у любителей шансона. Свои песни исполнял с особым восточным колоритом.
Вынужден был покинуть Баку во время событий на национальной почве в декабре 1989 года. В начале 1996 года проживал в Ереване. Выпустил ряд музыкальных альбомов.
В 1996 году на Бориса Аркадьевича было заведено уголовное дело за хранение оружия, что послужило причиной его эмиграции в США. Много выступал в местах заключения, гастролирует по миру. Постоянно проживает в Лос-Анджелесе. У Бориса Давидяна жена, сын, две дочери и четверо внуков.
Zina
Аватара пользователя
 
Раздал: 0 байт
Скачал: 0 байт
Ратио: Inf.
Сообщения: 332
Зарегистрирован: 01 июл 2014, 16:52
  • Торрент
Автор: Zina Хэш: ---
Добавлен: 12 апр 2020, 21:30 Приватный: Нет (DHT включён)
Статус: Проверен
Размер: 3.27 ГБ (3 507 822 332 байт)
Изменил:
---
Скачали: 0 (Раздающих: 0%)
Причина:
---
Здоровье: 100%
Сидеров: 5 Личеров: 2
Скорость раздачи: 0 байт/сек Скорость скачивания: 0 байт/сек
Последний сидер: 6 месяцев 7 дней 4 часа 1 минуту 5 секунд назад Последний личер: 6 месяцев 7 дней 4 часа 1 минуту 5 секунд назад
Для скачивания торрента необходимо зарегистрироваться или войти на трекер.

Форум Статистика

Кто сейчас на конференции

Сейчас этот форум просматривают: Bing [Bot] и гости: 10

  • Похожие торренты
    Ответы
    Просмотры
    Последнее сообщение

Настройки

Вернуться в Музыка / Мультимедиа

cron
Ресурс не предоставляет электронные версии произведений, а занимается лишь коллекционированием и каталогизацией ссылок, присылаемых и публикуемых на форуме нашими читателями. Если вы являетесь правообладателем какого-либо представленного материала и не желаете чтобы ссылка на него находилась в нашем каталоге, свяжитесь с нами и мы незамедлительно удалим её. Файлы для обмена на трекере предоставлены пользователями сайта, и администрация не несёт ответственности за их содержание. Просьба не заливать файлы, защищенные авторскими правами, а также файлы нелегального содержания!
tracker_cron