Модераторы: K15, Младшие модераторы, Модераторы

Идентификация [01-08 из 08 + Фильм о фильме] (Владлена Санду) [2022, Драма, детектив, триллер, криминал, WEBRip 720p]

Сообщение Sovetnik » 01 апр 2022, 01:42

#777

Идентификация
[01-08 из 08 + Фильм о фильме]


Информация о фильме
Название: Идентификация
Год выхода: 2022
Страна: Россия
Студия: Производство ООО «1-2-3 Продакшн» по заказу АО «ТНТ-Телесеть»
Продолжительность: 9 x ~ 00:52:00
Язык: Русский
Жанр: Драма, детектив, триллер, криминал

Режиссер: Владлена Санду

В ролях: Лена Тронина, Куралбек Чокоев, Анвар Осмоналиев, Полина Кутепова, Роман Васильев, Никита Кукушкин, Олег Васильков, Ваган Сароян, Ульяна Куликова, Екатерина Дегтярёва, Сергей Кузнецов, Анастасия Белоусова, Игорь Поселенов, Иван Ефремов, Александр Коротков, Максим Дромашко, Меерим Атантаева, Сайра Эсенбаева, Эрнест Абдыжапаров, Дмитрий Архангельский, Таисия Радченко, Юлия Рутберг, Валерий Афанасьев, Евгения Симонова, Велимир Русаков, Евгений Харитонов, Сергей Фатьянов, Александр Обласов, Георгий Тополага, Елена Плаксина, Сергей Горобченко.....

О фильме:
Сирота Валерия работает продавщицей на вещевом рынке в Москве. Влюбившись в Амана, она принимает ислам и становится частью диаспоры. На свадьбе Бакир, брат Амана, пытается изнасиловать девушку, но ей удаётся сбежать. Вскоре обнаруживают изуродованный труп Бакира, всё подозрение падает на Валерию. В ее невиновность верят лишь молодой адвокат Даниил Крамер и уставший от жизни следователь Григорий Плахов.







Премьера: 17 февраля 2022 года (Premier)

Файл
Формат: MKV
Качество: WEBRip 720p
Видео: MPEG-4 AVC, ~ 3000 Кбит/с, 1280x544
Звук: AC3, 2 ch, 192 Кбит/с
Субтитры: Отсутствуют
Семпл

Общее
Уникальный идентификатор : 238294931324507725655631992207082937157 (0xB345EF33BF67F6814EEDB18F5AFA5B45)
Полное имя : D:Identifikaciya.S01.2022.WEBRip.720pIdentifikaciya.S01.E01.2022.WEBRip.720p.mkv
Формат : Matroska
Версия формата : Version 4
Размер файла : 1,28 Гбайт
Продолжительность : 58 м. 9 с.
Режим общего битрейта : Переменный
Общий поток : 3 160 Кбит/сек
Название фильма : Identifikaciya.S01.E01.2022.WEBRip.720p
Дата кодирования : UTC 2022-02-16 21:10:38
Программа кодирования : mkvmerge v65.0.0 ('Too Much') 64-bit
Библиотека кодирования : libebml v1.4.2 + libmatroska v1.6.4
Attachments : poster.jpg

Видео
Идентификатор : 1
Формат : AVC
Формат/Информация : Advanced Video Codec
Профиль формата : High@L4.1
Настройки формата : CABAC / 2 Ref Frames
Параметр CABAC формата : Да
Параметр RefFrames формата : 2 кадра
Идентификатор кодека : V_MPEG4/ISO/AVC
Продолжительность : 58 м. 8 с.
Вид битрейта : Переменный
Битрейт : 2 966 Кбит/сек
Максимальный битрейт : 3 000 Кбит/сек
Ширина : 1 280 пикселей
Высота : 544 пикселя
Соотношение сторон : 2,40:1
Режим частоты кадров : Постоянный
Частота кадров : 25,000 кадров/сек
Цветовое пространство : YUV
Субдискретизация насыщенности : 4:2:0
Битовая глубина : 8 бит
Тип развёртки : Прогрессивная
Бит/(Пиксели*Кадры) : 0.170
Размер потока : 1,20 Гбайт (94%)
Default : Да
Forced : Нет
Цветовой диапазон : Limited
Основные цвета : BT.709
Характеристики трансфера : BT.709
Коэффициенты матрицы : BT.709

Аудио
Идентификатор : 2
Формат : AC-3
Формат/Информация : Audio Coding 3
Коммерческое название : Dolby Digital
Идентификатор кодека : A_AC3
Продолжительность : 58 м. 9 с.
Вид битрейта : Постоянный
Битрейт : 192 Кбит/сек
Каналы : 2 канала
Channel layout : L R
Частота : 48,0 КГц
Частота кадров : 31,250 кадров/сек (1536 SPF)
Метод сжатия : С потерями
Задержка видео : -120 мс.
Размер потока : 79,9 Мбайт (6%)
Service kind : Complete Main
Default : Да
Forced : Нет
Sovetnik
Аватара пользователя
 
Раздал: 32.14 ТБ
Скачал: 13.23 ГБ
Ратио: 2488.285
Сообщения: 1918
Зарегистрирован: 13 фев 2014, 05:19
  • Торрент
Автор: Sovetnik Хэш: ---
Добавлен: 01 апр 2022, 01:42 Приватный: Нет (DHT включён)
Статус: Проверен
Размер: 9.8 ГБ (10 518 031 216 байт)
Изменил:
---
Скачали: 1395 (Раздающих: 0%)
Причина:
---
Здоровье: 100%
Сидеров: 150 Личеров: 104
Скорость раздачи: 0 байт/сек Скорость скачивания: 0 байт/сек
Последний сидер: 12 дней 8 часов 36 минут 54 секунды назад Последний личер: 12 дней 8 часов 36 минут 54 секунды назад
Для скачивания торрента необходимо зарегистрироваться или войти на трекер.

Форум Статистика

Сейчас этот форум просматривают: нет зарегистрированных пользователей и гости: 5

Настройки

Вернуться в Сериалы

cron
Ресурс не предоставляет электронные версии произведений, а занимается лишь коллекционированием и каталогизацией ссылок, присылаемых и публикуемых на форуме нашими читателями. Если вы являетесь правообладателем какого-либо представленного материала и не желаете чтобы ссылка на него находилась в нашем каталоге, свяжитесь с нами и мы незамедлительно удалим её. Файлы для обмена на трекере предоставлены пользователями сайта, и администрация не несёт ответственности за их содержание. Просьба не заливать файлы, защищенные авторскими правами, а также файлы нелегального содержания!