Модераторы: K15, Модераторы, Младшие модераторы

Среда обитания / Habitat (Рене Даалдер) [1997, Фантастика, эротика, DVDRip / P2]

Сообщение Крутой перец » 13 окт 2020, 20:31

Среда обитания / Habitat


#777

Информация о фильме
Название: Среда обитания
Оригинальное название: Habitat
Год выхода: 1997
Выпущено: Канада, Нидерланды / Transfilm, Kingsborough Pictures, Ecotopia, Largo Entertainment
Продолжительность: 01:43:21
Перевод: Профессиональный двухголосый (СТБ)
Жанр: Фантастика, эротика

Режиссер: Рене Даалдер

В ролях:
Бальтазар Гетти, Чеки Карио, Элис Крайдж, Кеннет Уэлш, Лора Харрис, Брэд Остин, Кристофер Хейердал, Кристен Холден-Рид, Дэниэл Пилон, Линн Эдамс

О фильме:
Это был плохой год для Земли. Озоновый слой был уже уничтожен. Сотни видов животных и растений вымерли, а те, что выжили, вынуждены были приспосабливаться к жизни без солнца. Люди были одними из этих видов… Исследователь-микробиолог Хэнк Саймс случайно создает прогрессирующую форму жизни, активно защищающую себя от внешнего вмешательства. И начинается такое...



Семпл



Файл
Формат: avi
Качество: DVDRip
Видео: XviD, 720x480, ~1838 kbps, 23.976 fps
Звук: AC3, 2 ch, 192 kbps - Русский
Субтитры: Отсутствуют

General
Complete name : D:Среда обитания.1997.DVDRip..avi
Format : AVI
Format/Info : Audio Video Interleave
Format profile : OpenDML
File size : 1.47 GiB
Duration : 1 h 43 min
Overall bit rate : 2 042 kb/s
Movie name : Среда обитания / Habitat (СТБ)
Director : JUSTKANT
Writing application : msl
Copyright : На русский язык фильм озвучен международным медиа-центром "СТБ" в 2002 году
Comment : Качество звука: СТБ - TVRip (SuperDVD01)

Video
ID : 0
Format : MPEG-4 Visual
Format profile : Advanced Simple@L5
Format settings : BVOP2
Format settings, BVOP : 2
Format settings, QPel : No
Format settings, GMC : No warppoints
Format settings, Matrix : Default (H.263)
Muxing mode : Packed bitstream
Codec ID : XVID
Codec ID/Hint : XviD
Duration : 1 h 43 min
Bit rate : 1 838 kb/s
Width : 720 pixels
Height : 480 pixels
Display aspect ratio : 3:2
Frame rate : 23.976 (24000/1001) FPS
Color space : YUV
Chroma subsampling : 4:2:0
Bit depth : 8 bits
Scan type : Progressive
Compression mode : Lossy
Bits/(Pixel*Frame) : 0.222
Stream size : 1.33 GiB (90%)
Writing library : XviD 1.2.1 (UTC 2008-12-04)

Audio
ID : 1
Format : AC-3
Format/Info : Audio Coding 3
Commercial name : Dolby Digital
Codec ID : 2000
Duration : 1 h 43 min
Bit rate mode : Constant
Bit rate : 192 kb/s
Channel(s) : 2 channels
Channel layout : L R
Sampling rate : 48.0 kHz
Frame rate : 31.250 FPS (1536 SPF)
Bit depth : 16 bits
Compression mode : Lossy
Stream size : 142 MiB (9%)
Alignment : Aligned on interleaves
Interleave, duration : 32 ms (0.77 video frame)
Service kind : Complete Main
Крутой перец
Аватара пользователя
 
Раздал: 265.74 ГБ
Скачал: 1.45 ГБ
Ратио: 183.536
Сообщения: 192
Зарегистрирован: 10 июл 2014, 11:59
  • Торрент
Автор: Крутой перец Хэш: ---
Добавлен: 13 окт 2020, 20:31 Приватный: Нет (DHT включён)
Статус: Проверен
Размер: 1.47 ГБ (1 583 201 022 байт)
Изменил:
---
Скачали: 41 (Раздающих: 0%)
Причина:
---
Здоровье: 100%
Сидеров: 11 Личеров: 0
Скорость раздачи: 0 байт/сек Скорость скачивания: 0 байт/сек
Последний сидер: 10 дней 23 часа 4 минуты 43 секунды назад Последний личер: Нет
Для скачивания торрента необходимо зарегистрироваться или войти на трекер.

Форум Статистика

Кто сейчас на конференции

Сейчас этот форум просматривают: нет зарегистрированных пользователей и гости: 2

  • Похожие торренты
    Ответы
    Просмотры
    Последнее сообщение

Настройки

Вернуться в Эротика / XXX

cron
Ресурс не предоставляет электронные версии произведений, а занимается лишь коллекционированием и каталогизацией ссылок, присылаемых и публикуемых на форуме нашими читателями. Если вы являетесь правообладателем какого-либо представленного материала и не желаете чтобы ссылка на него находилась в нашем каталоге, свяжитесь с нами и мы незамедлительно удалим её. Файлы для обмена на трекере предоставлены пользователями сайта, и администрация не несёт ответственности за их содержание. Просьба не заливать файлы, защищенные авторскими правами, а также файлы нелегального содержания!
tracker_cron